Loading...
Error

Я есть гнев / I Am Wrath (Чак Рассел) [2016 г., боевик, триллер, драма, криминал, WEB-DLRip] DVO

Статистика раздачи
Размер:  1,37 GB   |    Зарегистрирован:  9 месяцев   |    Скачан:  69 раз
Сидов:  1  |  0 KB/s  ]   Личеров:  0  |  0 KB/s  ]

* - сиды/пиры с внешних источников

   
 
Автор Сообщение

makkol Пол:Муж

16-Апр-2016 22:07

Я есть гнев / I Am Wrath


Год выпуска: 2016
Жанр: боевик, триллер, драма, криминал
Производство: США [Patriot Pictures LLC, Vallelonga Productions, Vengeance is Mine Productions]
Режиссер: Чак Рассел
В ролях: Джон Траволта, Майкл Уррикуа, Ребекка Де Морнэй, Кристофер Мелони, Аманда Шулл, Сэм Трэммелл, Патрик Ст. Эсприт, Луис Да Силва мл., Дорис Моргадо
Сюжет фильма:
История человека, чью жену убили и который, отчаявшись дождаться каких-то действий со стороны полиции, решает сам найти преступника и покарать его.

  • Мировая премьера: 14 апреля 2016


Качество видео: WEB-DLRip

Продолжительность: 01:31:27
Формат: AVI
Видео: XviD, 720x304 (2.35:1), 23.976 fps, 1747 kbps
Аудио: русский, любительский двухголосый закадровый, AC3 2.0, 48 kHz, 384 kbps

Код:

Формат                                   : AVI
Формат/Информация                        : Audio Video Interleave
Размер файла                             : 1,37 Гбайт
Продолжительность                        : 1 ч. 31 м.
Общий поток                              : 2140 Кбит/сек
Программа кодирования                    : VirtualDubMod 1.5.10.2 (build 2540/release)
Библиотека кодирования                   : VirtualDubMod build 2540/release

Видео
Идентификатор                            : 0
Формат                                   : MPEG-4 Visual
Профиль формата                          : Advanced Simple@L5
Параметр BVOP формата                    : 2
Параметр QPel формата                    : Нет
Параметр GMC формата                     : Без точки перехода
Параметр матрицы формата                 : Выборочная
Идентификатор кодека                     : XVID
Идентификатор кодека/Подсказка           : XviD
Продолжительность                        : 1 ч. 31 м.
Битрейт                                  : 1747 Кбит/сек
Ширина                                   : 720 пикселей
Высота                                   : 304 пикселя
Соотношение сторон                       : 2,35:1
Частота кадров                           : 23,976 (24000/1001) кадра/сек
Цветовое пространство                    : YUV
Субдискретизация насыщенности            : 4:2:0
Битовая глубина                          : 8 бит
Тип развёртки                            : Прогрессивная
Метод сжатия                             : С потерями
Бит/(Пиксели*Кадры)                      : 0.333
Размер потока                            : 1,12 Гбайт (82%)
Библиотека кодирования                   : XviD 1.2.1 (UTC 2008-12-04)

Аудио
Идентификатор                            : 1
Формат                                   : AC-3
Формат/Информация                        : Audio Coding 3
Расширение режима                        : CM (complete main)
Параметр Endianness формата              : Big
Идентификатор кодека                     : 2000
Продолжительность                        : 1 ч. 31 м.
Вид битрейта                             : Постоянный
Битрейт                                  : 384 Кбит/сек
Каналы                                   : 2 канала
Расположение каналов                     : Front: L R
Частота                                  : 48,0 КГц
Частота кадров                           : 31,250 кадров/сек (1536 spf)
Метод сжатия                             : С потерями
Размер потока                            : 251 Мбайт (18%)
Выравнивание                             : Разделение по промежуткам
Продолжительность промежутка             : 42  мс. (1,00 видеокадр)
Время предзагрузки промежутка            : 500  мс.
Присутствует реклама


picpicpicpicpic
Для увеличения картинки щелкните мышкой по превью

Этот торрент недоступен для скачивания без регистрации, однако доступен по публичной magnet-ссылке (источники с публичных трекеров). Перед использованием ссылки прочтите, пожалуйста Пользовательское соглашение, а также как можно дольше оставайтесь на раздаче! Для того, чтобы скачать сам торрент-файл (который видит больше источников), а также для того, чтобы поблагодарить релизера, вам необходимо зарегистрироваться. Если регистрироваться лень - вы можете также попробовать скачать релиз по нашим партнерским ссылкам ниже.

[underverse.su].t65202.torrent
Трекер: Зарегистрирован   [ 16.04.2016 22:07 ]  

Статус: проверено (by makkol at 19.04.2016 23:38)
Поблагодарили: 3 человека
Тип торрента: публичный - доступные источники с открытых трекеров: 
Размер: 1,37 GB (занимает 0,31 DVDR, для записи нужно 1 болванка DVDR/RW)
 
 
Похожие темы
Форум Тема Автор Торрент Отв. Посл. сооб.
Зарубежное кино [DVDRip, Low-Res HDRip, и т.д.] Я есть гнев / I Am Wrath (Чак Расселл / Chuck Russell) [2016 г., боевик, триллер, драма, криминал, HDRip] AVO (Котов) 90ytr90
37 | 1

0 | 336

6

11.11.2016 12:58

Зарубежное кино [DVDRip, Low-Res HDRip, и т.д.] Я есть гнев / I Am Wrath (Чак Расселл / Chuck Russell) [2016 г., боевик, триллер, драма, криминал, BDRip] AVO (Котов) 90ytr90
214 | 2

0 | 266

7

11.11.2016 11:22

Зарубежное кино [DVDRip, Low-Res HDRip, и т.д.] Я есть гнев / I Am Wrath (Чак Расселл / Chuck Russell) [2016 г., боевик, триллер, драма, криминал, BDRip] DVO 90ytr90
157 | 2

0 | 631

17

05.05.2016 18:02

Зарубежное кино [HDDVDRip / BDRip / WEB-DL / HDTV 1080/720р] Я есть гнев / I Am Wrath (Чак Расселл / Chuck Russell) [2016 г., боевик, триллер, драма, криминал, BDRip 1080p] AVO (Котов) + Original (Eng) + Sub (Rus, Eng) 90ytr90
30 | 1

0 | 213

2

11.11.2016 08:11

Зарубежное кино [HDDVDRip / BDRip / WEB-DL / HDTV 1080/720р] Я есть гнев / I Am Wrath (Чак Расселл / Chuck Russell) [2016 г., боевик, триллер, драма, криминал, BDRip 720p] AVO (Котов) + Original (Eng) + Sub (Rus, Eng) 90ytr90
12 | 0

0 | 207

3

11.11.2016 08:08

Зарубежное кино [HDDVDRip / BDRip / WEB-DL / HDTV 1080/720р] Я есть гнев / I Am Wrath (Чак Рассел ) [2016 г., боевик, триллер, драма, криминал, WEB-DL 720p] DVO makkol
26 | 1

4 | 1975

140

01.05.2016 20:03


Яндекс.Метрика powered by Sphinx


В Н И М А Н И Е
Сайт не распространяет и не хранит электронные версии произведений, а лишь бесплатно и без коммерческой выгоды (не требуя взамен платы,
SMS и т.д.) предоставляет доступ к создаваемому пользователями каталогу ссылок на торрент-файлы, которые содержат только списки хеш-сумм.
Убедительная просьба с жалобами обращаться напрямую к пользователю, разместившему торрент файл.

Вверх