Loading...
Error

Сергей Никоненко. Мне осталась одна забава [2016 г., документальный, биография, SatRip]

Статистика раздачи
Размер:  713 MB   |    Зарегистрирован:  7 месяцев   |    Скачан:  6 раз

Полного источника не было: 2 месяца 29 дней

Сидов:  0  |  0 KB/s  ]   Личеров:  0  |  0 KB/s  ]

* - сиды/пиры с внешних источников

   
 
Автор Сообщение

ARI71 Пол:Муж

16-Апр-2016 18:53

Сергей Никоненко. Мне осталась одна забава


Год выпуска: 2016
Жанр: документальный, биография
Страна: Россия ООО Контраст
Режиссер: Илья Ульянов
В ролях: Сергей Никоненко
Сюжет фильма:
Если Сергей Никоненко появится на экране, то зритель ему всегда симпатизирует и доверяет. И это не из-за его огромного количества ролей, а из-за того, как и кого он играет. Обычно он играет простых и честных людей. Такой актер и в обычной жизни, настоящий работяга. Он никогда не сидит без дела, коллеги по цеху зовут его счастливчиком, непотопляемым, фартовым человеком. Как-то раз в девяностых годах, когда рухнула вся индустрия кино в СССР, его супруга услышла за спиной, как про Никоненко говорили, что он опять снимается, как же ему повезло. В документальном фильме будет рассказано, как непросто сложилась судьба фартового артиста.

Серге́й Петро́вич Никоне́нко (род. 16 апреля 1941, Москва) — советский и российский актёр театра и кино, кинорежиссёр. Народный артист РСФСР (1991)

Качество видео: SatRip

Продолжительность: 00:49:49
Формат: AVI
Видео: XviD, 704x448, ~1800 kbps
Аудио: русский, (оригинал), AC3 2.0, ~192.00 kbps

Код:

Общее
Полное имя : D:\Sergey.Nikonenko-Mne.Ostalas.Odna.Zabava.SATRip.avi
Формат : AVI
Формат/Информация : Audio Video Interleave
Размер файла : 713 Мбайт
Продолжительность : 49 м.
Общий поток : 2002 Кбит/сек
Программа кодирования : VirtualDubMod 1.5.10.3 | www.virtualdub-fr.org || (build 2550/release)
Библиотека кодирования : VirtualDubMod build 2550/release

Видео
Идентификатор : 0
Формат : MPEG-4 Visual
Профиль формата : Advanced Simple@L5
Параметр BVOP формата : 2
Параметр QPel формата : Нет
Параметр GMC формата : Без точки перехода
Параметр матрицы формата : Default (H.263)
Идентификатор кодека : XVID
Идентификатор кодека/Подсказка : XviD
Продолжительность : 49 м.
Битрейт : 1800 Кбит/сек
Ширина : 704 пикселя
Высота : 448 пикселей
Соотношение сторон : 16:10
Частота кадров : 25,000 кадров/сек
Цветовое пространство : YUV
Субдискретизация насыщенности : 4:2:0
Битовая глубина : 8 бит
Тип развёртки : Прогрессивная
Метод сжатия : С потерями
Бит/(Пиксели*Кадры) : 0.228
Размер потока : 641 Мбайт (90%)
Библиотека кодирования : XviD 1.2.1 (UTC 2008-12-04)

Аудио
Идентификатор : 1
Формат : AC-3
Формат/Информация : Audio Coding 3
Расширение режима : CM (complete main)
Параметр Endianness формата : Big
Идентификатор кодека : 2000
Продолжительность : 49 м.
Вид битрейта : Постоянный
Битрейт : 192 Кбит/сек
Каналы : 2 канала
Расположение каналов : Front: L R
Частота : 48,0 КГц
Метод сжатия : С потерями
Размер потока : 68,4 Мбайт (10%)
Выравнивание : Разделение по промежуткам
Продолжительность промежутка : 40 мс. (1,00 видеокадр)
Время предзагрузки промежутка : 500 мс.
Релиз группы:

picpicpicpicpic
Для увеличения картинки щелкните мышкой по превью

Этот торрент недоступен для скачивания без регистрации, однако доступен по публичной magnet-ссылке (источники с публичных трекеров). Перед использованием ссылки прочтите, пожалуйста Пользовательское соглашение, а также как можно дольше оставайтесь на раздаче! Для того, чтобы скачать сам торрент-файл (который видит больше источников), а также для того, чтобы поблагодарить релизера, вам необходимо зарегистрироваться. Если регистрироваться лень - вы можете также попробовать скачать релиз по нашим партнерским ссылкам ниже.

[underverse.su].t65197.torrent
Трекер: Зарегистрирован   [ 16.04.2016 18:53 ]  

Статус: проверено (by makkol at 16.04.2016 21:56)
Поблагодарили: пока никто не поблагодарил...
Тип торрента: публичный - доступные источники с открытых трекеров: 
Размер: 713 MB (занимает 0,16 DVDR, для записи нужно 1 болванка DVDR/RW)
 
 

Яндекс.Метрика powered by Sphinx


В Н И М А Н И Е
Сайт не распространяет и не хранит электронные версии произведений, а лишь бесплатно и без коммерческой выгоды (не требуя взамен платы,
SMS и т.д.) предоставляет доступ к создаваемому пользователями каталогу ссылок на торрент-файлы, которые содержат только списки хеш-сумм.
Убедительная просьба с жалобами обращаться напрямую к пользователю, разместившему торрент файл.

Вверх