Loading...
Error

BBC. Страсти по Толстому / ВВС. The Trouble with Tolstoy (1-2 серии из 2) [2011 г., документальный, история, биография, SatRip] VO

Статистика раздачи
Размер:  1,41 GB   |    Зарегистрирован:  7 месяцев   |    Скачан:  10 раз

Полного источника не было: 1 день 8 часов

Сидов:  0  |  0 KB/s  ]   Личеров:  0  |  0 KB/s  ]

* - сиды/пиры с внешних источников

   
 
Автор Сообщение

ARI71 Пол:Муж

16-Апр-2016 10:19

BBC. Страсти по Толстому / ВВС. The Trouble with Tolstoy (1-2 серии из 2)


Год выпуска: 2011
Жанр: документальный, история, биография
Страна: Великобритания BBC (British Broadcasting Corporation), Matchlight Limited
Режиссер: Руперт Эдвардс
Ведущий: Алан Энтоб
В ролях: Девид Калдэр, Дэбора Файндлэй
Сюжет фильма:
Лев Толстой без сомнения является светилом русской литературы. Он не только написал два великих романа «Война и мир» и «Анна Каренина», но был также плодотворным и влиятельным социально-религиозным философом и моралистом. Высказанные им радикальные идеи сделали его неоднозначной фигурой в России. В этой программе английский телеведущий Алан Энтоб отправляется на поезде вглубь современной России, для того чтобы узнать, что русские говорят о Льве Николаевиче Толстом — бунтаре и повстанце от литературы. Алан беседует со многими людьми, включая родственников Толстого, о писателе, которого в России читал каждый, кто учился в школе.

Граф Лев Никола́евич Толсто́й — (28 августа [9 сентября] 1828, Ясная Поляна, Тульская губерния, Российская империя — 7 [20] ноября 1910, станция Астапово, Рязанская губерния, Российская империя) — один из наиболее известных русских писателей и мыслителей, один из величайших писателей мира. Просветитель, публицист, религиозный мыслитель.

Качество видео: SatRip

Продолжительность: 2 x ~ 01:01:40
Формат: AVI
Видео: XviD, 704x400, ~1499 kbps
Аудио: русский, одноголосый закадровый (профессиональный), MP3 2.0, ~128.00 kbps

Код:

Общее
Полное имя : D:\BBC.Strasti.po.Tolstomu(1-2.ser.iz.2).2011.XviD.SATRip_OLARRI-qsdyg\BBC.Strasti.po.Tolstomu(1.ser.iz.2).V.borbe.s.samim.soboi.2011.XviD.SATRip_OLARRI-qsdyg.avi
Формат : AVI
Формат/Информация : Audio Video Interleave
Размер файла : 754 Мбайт
Продолжительность : 1 ч. 4 м.
Общий поток : 1637 Кбит/сек
Библиотека кодирования : VirtualDub build 32507/release

Видео
Идентификатор : 0
Формат : MPEG-4 Visual
Профиль формата : Advanced Simple@L5
Параметр BVOP формата : 2
Параметр QPel формата : Нет
Параметр GMC формата : Без точки перехода
Параметр матрицы формата : Default (H.263)
Режим смешивания : Сжатый битовый поток
Идентификатор кодека : XVID
Идентификатор кодека/Подсказка : XviD
Продолжительность : 1 ч. 4 м.
Битрейт : 1499 Кбит/сек
Ширина : 704 пикселя
Высота : 400 пикселей
Соотношение сторон : 16:9
Частота кадров : 25,000 кадров/сек
Цветовое пространство : YUV
Субдискретизация насыщенности : 4:2:0
Битовая глубина : 8 бит
Тип развёртки : Прогрессивная
Метод сжатия : С потерями
Бит/(Пиксели*Кадры) : 0.213
Размер потока : 691 Мбайт (92%)
Библиотека кодирования : XviD 1.2.1 (UTC 2008-12-04)

Аудио
Идентификатор : 1
Формат : MPEG Audio
Версия формата : Version 1
Профиль формата : Layer 3
Режим : Joint stereo
Расширение режима : MS Stereo
Идентификатор кодека : 55
Идентификатор кодека/Подсказка : MP3
Продолжительность : 1 ч. 4 м.
Вид битрейта : Постоянный
Битрейт : 128 Кбит/сек
Каналы : 2 канала
Частота : 48,0 КГц
Метод сжатия : С потерями
Размер потока : 59,0 Мбайт (8%)
Выравнивание : Разделение по промежуткам
Продолжительность промежутка : 40 мс. (1,00 видеокадр)
Время предзагрузки промежутка : 500 мс.
Библиотека кодирования : LAME3.98.2
picpicpicpicpic
Для увеличения картинки щелкните мышкой по превью

Этот торрент недоступен для скачивания без регистрации, однако доступен по публичной magnet-ссылке (источники с публичных трекеров). Перед использованием ссылки прочтите, пожалуйста Пользовательское соглашение, а также как можно дольше оставайтесь на раздаче! Для того, чтобы скачать сам торрент-файл (который видит больше источников), а также для того, чтобы поблагодарить релизера, вам необходимо зарегистрироваться. Если регистрироваться лень - вы можете также попробовать скачать релиз по нашим партнерским ссылкам ниже.

[underverse.su].t65185.torrent
Трекер: Зарегистрирован   [ 16.04.2016 10:19 ]  

Статус: проверено (by makkol at 16.04.2016 11:25)
Поблагодарили: пока никто не поблагодарил...
Тип торрента: публичный - доступные источники с открытых трекеров: 
Размер: 1,41 GB (занимает 0,32 DVDR, для записи нужно 1 болванка DVDR/RW)
 
 

Яндекс.Метрика powered by Sphinx


В Н И М А Н И Е
Сайт не распространяет и не хранит электронные версии произведений, а лишь бесплатно и без коммерческой выгоды (не требуя взамен платы,
SMS и т.д.) предоставляет доступ к создаваемому пользователями каталогу ссылок на торрент-файлы, которые содержат только списки хеш-сумм.
Убедительная просьба с жалобами обращаться напрямую к пользователю, разместившему торрент файл.

Вверх