Loading...
Error

Не прикован я к нашему веку… Николай Гумилев [2016 г., документальный, история, поэзия, биография, SatRip]

Статистика раздачи
Размер:  394 MB   |    Зарегистрирован:  7 месяцев   |    Скачан:  7 раз

Полного источника не было: 9 дней

Сидов:  0  |  0 KB/s  ]   Личеров:  0  |  0 KB/s  ]

* - сиды/пиры с внешних источников

   
 
Автор Сообщение

ARI71 Пол:Муж

14-Апр-2016 20:40

Не прикован я к нашему веку… Николай Гумилев


Год выпуска: 2016
Жанр: документальный, история, поэзия, биография
Страна: Россия ГТРК "Санкт-Петербург"
Режиссер: Наталья Сергеева
Сюжет фильма:
Он родился в бурю, на острове - в Кронштадте. И его нянька напророчила ему бурную жизнь. За год до окончания гимназии Гумилев выпустил свой первый поэтический сборник, а спустя годы стал вождем нового течения в поэзии - акмеизма. Из экспедиции по Африке по заданию Академии наук он привез в Кунсткамеру коллекцию, которой восхищались ученые светила со всей Европы. Его путь по Африке можно проследить по сборнику стихов "Шатер". А в 1914 году он ушел на фронт и дважды становился Георгиевским кавалером. Последнюю книгу стихов Гумилев назвал "Огненный столп".

Никола́й Степа́нович Гумилёв (3 [15] апреля 1886, Кронштадт — 26 августа 1921, под Петроградом) — русский поэт Серебряного века, создатель школы акмеизма, переводчик, литературный критик.

Качество видео: SatRip

Продолжительность: 00:25:45
Формат: AVI
Видео: XviD, 704x528, ~2000 kbps
Аудио: русский, (оригинал), MP3 2.0, ~128.00 kbps

Код:

Общее
Полное имя : D:\Не прикован я к нашему веку.Николай Гумилев.2016.SATRip.avi
Формат : AVI
Формат/Информация : Audio Video Interleave
Размер файла : 394 Мбайт
Продолжительность : 25 м.
Общий поток : 2138 Кбит/сек
Программа кодирования : VirtualDubMod 1.5.10.3 | www.virtualdub-fr.org || (build 2550/release)
Библиотека кодирования : VirtualDubMod build 2550/release

Видео
Идентификатор : 0
Формат : MPEG-4 Visual
Профиль формата : Advanced Simple@L5
Параметр BVOP формата : 2
Параметр QPel формата : Нет
Параметр GMC формата : Без точки перехода
Параметр матрицы формата : Default (MPEG)
Идентификатор кодека : XVID
Идентификатор кодека/Подсказка : XviD
Продолжительность : 25 м.
Битрейт : 2000 Кбит/сек
Ширина : 704 пикселя
Высота : 528 пикселей
Соотношение сторон : 4:3
Частота кадров : 25,000 кадров/сек
Цветовое пространство : YUV
Субдискретизация насыщенности : 4:2:0
Битовая глубина : 8 бит
Тип развёртки : Прогрессивная
Метод сжатия : С потерями
Бит/(Пиксели*Кадры) : 0.215
Размер потока : 368 Мбайт (94%)
Библиотека кодирования : XviD 73

Аудио
Идентификатор : 1
Формат : MPEG Audio
Версия формата : Version 1
Профиль формата : Layer 3
Режим : Joint stereo
Расширение режима : MS Stereo
Идентификатор кодека : 55
Идентификатор кодека/Подсказка : MP3
Продолжительность : 25 м.
Вид битрейта : Постоянный
Битрейт : 128 Кбит/сек
Каналы : 2 канала
Частота : 48,0 КГц
Метод сжатия : С потерями
Размер потока : 23,6 Мбайт (6%)
Выравнивание : Соединение по промежуткам
Продолжительность промежутка : 40 мс. (1,00 видеокадр)
Время предзагрузки промежутка : 504 мс.
picpicpicpicpic
Для увеличения картинки щелкните мышкой по превью

Этот торрент недоступен для скачивания без регистрации, однако доступен по публичной magnet-ссылке (источники с публичных трекеров). Перед использованием ссылки прочтите, пожалуйста Пользовательское соглашение, а также как можно дольше оставайтесь на раздаче! Для того, чтобы скачать сам торрент-файл (который видит больше источников), а также для того, чтобы поблагодарить релизера, вам необходимо зарегистрироваться. Если регистрироваться лень - вы можете также попробовать скачать релиз по нашим партнерским ссылкам ниже.

[underverse.su].t65158.torrent
Трекер: Зарегистрирован   [ 14.04.2016 20:40 ]  

Статус: проверено (by makkol at 14.04.2016 22:17)
Поблагодарили: пока никто не поблагодарил...
Тип торрента: публичный - доступные источники с открытых трекеров: 
Размер: 394 MB (занимает 0,09 DVDR, для записи нужно 1 болванка DVDR/RW)
 
 

Яндекс.Метрика powered by Sphinx


В Н И М А Н И Е
Сайт не распространяет и не хранит электронные версии произведений, а лишь бесплатно и без коммерческой выгоды (не требуя взамен платы,
SMS и т.д.) предоставляет доступ к создаваемому пользователями каталогу ссылок на торрент-файлы, которые содержат только списки хеш-сумм.
Убедительная просьба с жалобами обращаться напрямую к пользователю, разместившему торрент файл.

Вверх