Loading...
Error

Кровавая сказка / Кровавая легенда / Когда цвели маки / Krvava bajka (Бранимир Тори Янкович) [1969 г., драма, военный, DVDRip] VO + Original + Subs

Статистика раздачи
Размер:  1,47 GB   |    Зарегистрирован:  7 месяцев   |    Скачан:  1 раз

Полного источника не было: 6 месяцев

Сидов:  0  |  0 KB/s  ]   Личеров:  0  |  0 KB/s  ]

* - сиды/пиры с внешних источников

   
 
Автор Сообщение

makkol Пол:Муж

13-Апр-2016 15:09

Кровавая сказка / Кровавая легенда / Когда цвели маки / Krvava bajka


Год выпуска: 1969
Жанр: драма, военный
Производство: Югославия [Filmska Radna Zajednica, Yugoslavia Film]
Режиссер: Бранимир Тори Янкович
В ролях: Мира Ступица, Мия Алексич, Велимир «Бата» Живоинович, Люба Тадич, Васа Пантелич, Любиша Йованович, Янез Врховец, Северин Биелич, Драгомир Фелба, Растко Тадич, Люба Ковачевич, Франьо Камер
Сюжет фильма:
Фильм посвящен событиям в Крагуеваце. Первые дни оккупации, первые невинные жертвы, первые вылазки еще малочисленных партизан. В ответ за каждого убитого германского солдата фашисты расстреливают 100 местных жителей. В центре повествования - местные мальчишки, чистильщики обуви. Они по-своему сопротивляются захватчикам, отказываясь чистить сапоги немецким офицерам и солдатам. Рано или поздно смертельный черед доходит и до них... (prostotak)

  • Мировая премьера: 30 октября 1970


Качество видео: DVDRip

Продолжительность: 01:22:17
Формат: AVI
Видео: XviD, 720x480 (3:2), 25.000 fps, 2167 kbps
Аудио #1: русский, любительский одноголосый закадровый (Семен Ващенко), AC3 2.0, 48 kHz, 192 kbps
Аудио #2: сербско-хорватский, оригинал, MP3 2.0, 48 kHz, 192 kbps
Субтитры: русские (scouttravel), английские (Inglourious), словенские внешние
"Кровавая сказка" - так называется песня, написанная сербкой Десанкой Максимович в 1941 году после того, как она узнала о событиях в оккупированном немцами городке Крагуевац. Нацисты расстреляли там учеников местной гимназии, а всего жертвами фашистского террора в городе стали 7000 человек.

В 1971 году этот фильм шел в советском прокате под названием "Когда цвели маки". А знаменитый советский певец Марк Бернес в свое время исполнял песню "Последний урок", посвященную драматическим событиям в Крагуеваце.

Код:

Общее
Полное имя                               : Krvava.bajka.1969.DVDRip.avi
Формат                                   : AVI
Формат/Информация                        : Audio Video Interleave
Размер файла                             : 1,47 Гбайт
Продолжительность                        : 1 ч. 22 м.
Общий поток                              : 2565 Кбит/сек
Программа кодирования                    : VirtualDubMod 1.5.10.2 (build 2540/release)
Библиотека кодирования                   : VirtualDubMod build 2540/release

Видео
Идентификатор                            : 0
Формат                                   : MPEG-4 Visual
Профиль формата                          : Advanced Simple@L5
Параметр BVOP формата                    : 2
Параметр QPel формата                    : Да
Параметр GMC формата                     : Без точки перехода
Параметр матрицы формата                 : Default (MPEG)
Идентификатор кодека                     : XVID
Идентификатор кодека/Подсказка           : XviD
Продолжительность                        : 1 ч. 22 м.
Битрейт                                  : 2167 Кбит/сек
Ширина                                   : 720 пикселей
Высота                                   : 480 пикселей
Соотношение сторон                       : 3:2
Частота кадров                           : 25,000 кадров/сек
Цветовое пространство                    : YUV
Субдискретизация насыщенности            : 4:2:0
Битовая глубина                          : 8 бит
Тип развёртки                            : Прогрессивная
Метод сжатия                             : С потерями
Бит/(Пиксели*Кадры)                      : 0.251
Размер потока                            : 1,25 Гбайт (84%)
Библиотека кодирования                   : XviD 1.2.1 (UTC 2008-12-04)

Аудио #1
Идентификатор                            : 1
Формат                                   : AC-3
Формат/Информация                        : Audio Coding 3
Расширение режима                        : CM (complete main)
Параметр Endianness формата              : Big
Идентификатор кодека                     : 2000
Продолжительность                        : 1 ч. 22 м.
Вид битрейта                             : Постоянный
Битрейт                                  : 192 Кбит/сек
Каналы                                   : 2 канала
Расположение каналов                     : Front: L R
Частота                                  : 48,0 КГц
Метод сжатия                             : С потерями
Размер потока                            : 113 Мбайт (7%)
Выравнивание                             : Разделение по промежуткам
Продолжительность промежутка             : 40  мс. (1,00 видеокадр)
Время предзагрузки промежутка            : 500  мс.

Аудио #2
Идентификатор                            : 2
Формат                                   : MPEG Audio
Версия формата                           : Version 1
Профиль формата                          : Layer 3
Режим                                    : Joint stereo
Расширение режима                        : MS Stereo
Идентификатор кодека                     : 55
Идентификатор кодека/Подсказка           : MP3
Продолжительность                        : 1 ч. 22 м.
Вид битрейта                             : Постоянный
Битрейт                                  : 192 Кбит/сек
Каналы                                   : 2 канала
Частота                                  : 48,0 КГц
Метод сжатия                             : С потерями
Размер потока                            : 113 Мбайт (7%)
Выравнивание                             : Разделение по промежуткам
Продолжительность промежутка             : 40  мс. (1,00 видеокадр)
Время предзагрузки промежутка            : 500  мс.
Библиотека кодирования                   : LAME3.99r
Настройки программы                      : -m j -V 4 -q 2 -lowpass 18.6 -b 192
Релиз:

picpicpicpicpic
Для увеличения картинки щелкните мышкой по превью

Этот торрент недоступен для скачивания без регистрации, однако доступен по публичной magnet-ссылке (источники с публичных трекеров). Перед использованием ссылки прочтите, пожалуйста Пользовательское соглашение, а также как можно дольше оставайтесь на раздаче! Для того, чтобы скачать сам торрент-файл (который видит больше источников), а также для того, чтобы поблагодарить релизера, вам необходимо зарегистрироваться. Если регистрироваться лень - вы можете также попробовать скачать релиз по нашим партнерским ссылкам ниже.

[underverse.su].t65114.torrent
Трекер: Зарегистрирован   [ 13.04.2016 15:09 ]  

Статус: проверено (by makkol at 14.04.2016 15:01)
Поблагодарили: пока никто не поблагодарил...
Тип торрента: публичный - доступные источники с открытых трекеров: 
Размер: 1,47 GB (занимает 0,34 DVDR, для записи нужно 1 болванка DVDR/RW)
 
 

Яндекс.Метрика powered by Sphinx


В Н И М А Н И Е
Сайт не распространяет и не хранит электронные версии произведений, а лишь бесплатно и без коммерческой выгоды (не требуя взамен платы,
SMS и т.д.) предоставляет доступ к создаваемому пользователями каталогу ссылок на торрент-файлы, которые содержат только списки хеш-сумм.
Убедительная просьба с жалобами обращаться напрямую к пользователю, разместившему торрент файл.

Вверх