Loading...
Error

"О рыбалке всерьёз". Мастер-класс по фидеру [2015-2016 г., документальный, рыбалка, WEBRip]

Статистика раздачи
Размер:  1,8 GB   |    Зарегистрирован:  1 год   |    Скачан:  13 раз

Полного источника не было: 1 месяц 10 дней

Сидов:  0  |  0 KB/s  ]   Личеров:  0  |  0 KB/s  ]

* - сиды/пиры с внешних источников

   
 
Автор Сообщение

ARI71 Пол:Муж

13-Апр-2016 14:30

"О рыбалке всерьёз". Мастер-класс по фидеру


Год выпуска: 2015-2016
Жанр: документальный, рыбалка
Страна: Украина
Режиссер: Анатолий Александров
Ведущий: Роман Новицкий
Сюжет фильма:
Научно-популярная и познавательная программа про рыбаков и рыбалку, про отношения человека и подводных обитателей. Которая рассказывает о любительском и спортивном рыболовстве, о пресноводных и морских рыбах Украины.
Качество видео: WEBRip

Продолжительность: 6 х ~00:20:00
Формат: AVI
Видео: XviD, 720x480, ~1711 kbps
Аудио: русский, (оригинал), MP3 2.0, ~192.00 kbps
(тех. данные всех серий идентичны)
01. Первая весенняя фидерная рыбалка
02. Открытие фидерного сезона. Ловля карася
03. Весенний фидер. Ловля карпа на пруду
04. Летний фидер. Охота за лещом
05. Ловля карася фидерной снастью с молодым экспертом
06. Ранняя весна. Первая фидерная рыбалка по открытой воде

Код:

Общее
Полное имя : D:\О рыбалке всерьёз\283. Первая весенняя фидерная рыбалка.avi
Формат : AVI
Формат/Информация : Audio Video Interleave
Размер файла : 274 Мбайт
Продолжительность : 19 м.
Общий поток : 1917 Кбит/сек
Программа кодирования : Lavf56.25.101

Видео
Идентификатор : 0
Формат : xvid
Идентификатор кодека : xvid
Продолжительность : 19 м.
Битрейт : 1711 Кбит/сек
Ширина : 720 пикселей
Высота : 480 пикселей
Соотношение сторон : 3:2
Частота кадров : 30,000 кадров/сек
Бит/(Пиксели*Кадры) : 0.165
Размер потока : 245 Мбайт (89%)

Аудио
Идентификатор : 1
Формат : MPEG Audio
Версия формата : Version 1
Профиль формата : Layer 3
Режим : Joint stereo
Расширение режима : MS Stereo
Идентификатор кодека : 55
Идентификатор кодека/Подсказка : MP3
Продолжительность : 19 м.
Вид битрейта : Постоянный
Битрейт : 192 Кбит/сек
Каналы : 2 канала
Частота : 44,1 КГц
Метод сжатия : С потерями
Размер потока : 27,5 Мбайт (10%)
Выравнивание : Соединение по промежуткам
Продолжительность промежутка : 26 мс. (0,78 видеокадр)
Время предзагрузки промежутка : 26 мс.
picpicpicpicpic
Для увеличения картинки щелкните мышкой по превью

Этот торрент недоступен для скачивания без регистрации, однако доступен по публичной magnet-ссылке (источники с публичных трекеров). Перед использованием ссылки прочтите, пожалуйста Пользовательское соглашение, а также как можно дольше оставайтесь на раздаче! Для того, чтобы скачать сам торрент-файл (который видит больше источников), а также для того, чтобы поблагодарить релизера, вам необходимо зарегистрироваться. Если регистрироваться лень - вы можете также попробовать скачать релиз по нашим партнерским ссылкам ниже.

[underverse.su].t65113.torrent
Трекер: Зарегистрирован   [ 13.04.2016 14:30 ]  

Статус: проверено (by makkol at 13.04.2016 14:56)
Поблагодарили: 1 человек
Тип торрента: публичный - доступные источники с открытых трекеров: 
Размер: 1,8 GB (занимает 0,41 DVDR, для записи нужно 1 болванка DVDR/RW)
 
 
Похожие темы
Форум Тема Автор Торрент Отв. Посл. сооб.
Рыбалка "О рыбалке всерьёз". Мастер-класс по фидеру (2 выпуска) / (Анатолий Александров) [2016 г., документальный, рыбалка, WEBRip] ARI71
2 | 0

1 | 438

8

06.01.2017 03:13


Яндекс.Метрика powered by Sphinx


В Н И М А Н И Е
Сайт не распространяет и не хранит электронные версии произведений, а лишь бесплатно и без коммерческой выгоды (не требуя взамен платы,
SMS и т.д.) предоставляет доступ к создаваемому пользователями каталогу ссылок на торрент-файлы, которые содержат только списки хеш-сумм.
Убедительная просьба с жалобами обращаться напрямую к пользователю, разместившему торрент файл.

Вверх