Loading...
Error

Владимир Комаров. Неизвестные кадры хроники [2016 г., документальный, космос, история, биография, IPTVRip]

Статистика раздачи
Размер:  550 MB   |    Зарегистрирован:  7 месяцев   |    Скачан:  14 раз

Полного источника не было: 5 дней

Сидов:  0  |  0 KB/s  ]   Личеров:  0  |  0 KB/s  ]

* - сиды/пиры с внешних источников

   
 
Автор Сообщение

ARI71 Пол:Муж

13-Апр-2016 13:38

Владимир Комаров. Неизвестные кадры хроники


Год выпуска: 2016
Жанр: документальный, космос, история, биография
Страна: Россия ООО «Студия «Крылья», ОАО «ТРК ВС РФ «ЗВЕЗДА»
Режиссер: Юлия Сатарова
Сюжет фильма:
Часто нам кажется, что мы знаем о жизни первых космонавтов все. И знаем наизусть всю кинохронику с ними. И вдруг спустя полвека мы находим новые, никому неизвестные кадры, которые позволяют взглянуть на жизнь космонавта №7 Владимира Комарова с неофициальной стороны. Это были съемки 1965-66 годов. До запуска нового космического корабля «Союз-1» оставалось 10 месяцев. Космонавт Владимир Михайлович Комаров не знал, что уже начался обратный отсчет до рокового полета и бессмертия...

Влади́мир Миха́йлович Комаро́в (16 марта 1927 года, Москва — 24 апреля 1967 года, Оренбургская область) — лётчик-космонавт, дважды Герой Советского Союза (второй раз звание присвоено посмертно), инженер-полковник. Командир первого в мире экипажа космического корабля, причём сразу из трёх человек. Дважды летал на первых кораблях нового типа: Восход-1 и Союз-1.

Качество видео: IPTVRip

Продолжительность: 00:38:25
Формат: AVI
Видео: XviD, 720x400, ~1800 kbps
Аудио: русский, (оригинал), AC3 2.0, ~192.00 kbps

Код:

Общее
Полное имя : D:\Владимир.Комаров.2016.XviD.IPTVRip.alf62.avi
Формат : AVI
Формат/Информация : Audio Video Interleave
Размер файла : 550 Мбайт
Продолжительность : 38 м.
Общий поток : 2002 Кбит/сек
Программа кодирования : VirtualDubMod 1.5.10.3 | www.virtualdub-fr.org || (build 2550/release)
Библиотека кодирования : VirtualDubMod build 2550/release

Видео
Идентификатор : 0
Формат : MPEG-4 Visual
Профиль формата : Advanced Simple@L5
Параметр BVOP формата : 2
Параметр QPel формата : Нет
Параметр GMC формата : Без точки перехода
Параметр матрицы формата : Default (MPEG)
Идентификатор кодека : XVID
Идентификатор кодека/Подсказка : XviD
Продолжительность : 38 м.
Битрейт : 1800 Кбит/сек
Ширина : 720 пикселей
Высота : 400 пикселей
Соотношение сторон : 16:9
Частота кадров : 25,000 кадров/сек
Цветовое пространство : YUV
Субдискретизация насыщенности : 4:2:0
Битовая глубина : 8 бит
Тип развёртки : Прогрессивная
Метод сжатия : С потерями
Бит/(Пиксели*Кадры) : 0.250
Размер потока : 495 Мбайт (90%)
Библиотека кодирования : XviD 73

Аудио
Идентификатор : 1
Формат : AC-3
Формат/Информация : Audio Coding 3
Расширение режима : CM (complete main)
Параметр Endianness формата : Big
Идентификатор кодека : 2000
Продолжительность : 38 м.
Вид битрейта : Постоянный
Битрейт : 192 Кбит/сек
Каналы : 2 канала
Расположение каналов : Front: L R
Частота : 48,0 КГц
Метод сжатия : С потерями
Размер потока : 52,8 Мбайт (10%)
Выравнивание : Разделение по промежуткам
Продолжительность промежутка : 40 мс. (1,00 видеокадр)
Время предзагрузки промежутка : 500 мс.
Релиз группы:

picpicpicpicpic
Для увеличения картинки щелкните мышкой по превью

Этот торрент недоступен для скачивания без регистрации, однако доступен по публичной magnet-ссылке (источники с публичных трекеров). Перед использованием ссылки прочтите, пожалуйста Пользовательское соглашение, а также как можно дольше оставайтесь на раздаче! Для того, чтобы скачать сам торрент-файл (который видит больше источников), а также для того, чтобы поблагодарить релизера, вам необходимо зарегистрироваться. Если регистрироваться лень - вы можете также попробовать скачать релиз по нашим партнерским ссылкам ниже.

[underverse.su].t65111.torrent
Трекер: Зарегистрирован   [ 13.04.2016 13:38 ]  

Статус: проверено (by makkol at 13.04.2016 14:54)
Поблагодарили: 2 человека
Тип торрента: публичный - доступные источники с открытых трекеров: 
Размер: 550 MB (занимает 0,12 DVDR, для записи нужно 1 болванка DVDR/RW)
 
 
Похожие темы
Форум Тема Автор Торрент Отв. Посл. сооб.
Гуманитарные науки, история, публицистика Владимир Козлов - Массовые беспорядки в СССР при Хрущеве и Брежневе. 1953 - начало 1980-х гг. [2009 г., История, PDF] RUS kantona
0 | 0

1 | 948

14

14.05.2014 14:05

Гуманитарные науки, история, публицистика Владимир Козлов - Руководство Девушкой: Пошаговые Стратегии Вскружить Голову Любой [2009 г., психология, PDF] RUS Паукан
2 | 0

0 | 533

37

26.02.2014 08:52

Гуманитарные науки, история, публицистика Владимир Квачков - Страна русских. Кому править Россией? [2014 г., публицистика, FB2] RUS Паукан
7 | 0

0 | 379

21

28.10.2015 00:29

Историческая литература Владимир Карпов - Дальше Кушки не пошлют [2015 г., историческая проза, аудиокнига, MP3, 96 kbps] RUS Паукан
2 | 0

0 | 341

3

04.05.2016 08:57

Фантастика, фэнтези Владимир Кучеренко - Серая эльфийка. Танцы с саблями (1 книга) (2016) [MP3, фэнтези, 192 kbps] RUS Rem_7
9 | 0

0 | 443

1

13.09.2016 18:00

Фантастика, фэнтези Владимир Кучеренко - Алебардист (2016) [фантастика, MP3, 192 kbps] RUS IronMan
6 | 0

0 | 400

3

28.06.2016 14:36

Фантастика, фэнтези Владимир Кучеренко - Миры Бессмертных. Головоломка (2 книга) [2016 г., фантастика, MP3, 192 kbps] RUS Rem_7
9 | 0

0 | 575

2

04.08.2016 10:14

Ужасы, мистика Владимир Кунин - Иванов и Рабинович, или «Ай гоу ту Хайфа» (2009) [MP3, 256 Kbps] Bratok
0 | 0

4 | 1501

12

19.08.2010 08:05

* Архив Владимир Кличко - Эдди Чемберс. RTL (Рус) 20.03.2010. [2010 г., Бокс, HDTVRip] fletron

1 | 1189

30.08.2010 00:06

Детектив, боевик, триллер Владимир Колычев - Бандитская Голгофа [2014 г., Детектив, FB2] RUS vasiliew.slava
0 | 0

1 | 804

6

22.09.2014 14:03

ARI71 Пол:Муж

14-Апр-2016 12:27

Просьба к скачавшим: оставайтесь пожалуйста как можно дольше на раздаче! 5 скачавших есть, я с раздачи схожу! Приятного всем просмотра!

Яндекс.Метрика powered by Sphinx


В Н И М А Н И Е
Сайт не распространяет и не хранит электронные версии произведений, а лишь бесплатно и без коммерческой выгоды (не требуя взамен платы,
SMS и т.д.) предоставляет доступ к создаваемому пользователями каталогу ссылок на торрент-файлы, которые содержат только списки хеш-сумм.
Убедительная просьба с жалобами обращаться напрямую к пользователю, разместившему торрент файл.

Вверх