Loading...
Error

"100 РЫБАЛОК" (1-3 выпуска) [2015 г., документальный, рыбалка, WEBRip]

Статистика раздачи
Размер:  1,83 GB   |    Зарегистрирован:  7 месяцев   |    Скачан:  5 раз

Полного источника не было: 3 месяца 29 дней

Сидов:  0  |  0 KB/s  ]   Личеров:  0  |  0 KB/s  ]

* - сиды/пиры с внешних источников

   
 
Автор Сообщение

ARI71 Пол:Муж

12-Апр-2016 17:06

"100 РЫБАЛОК" (1-3 выпуска)


Год выпуска: 2015
Жанр: документальный, рыбалка
Страна: Украина "ТРОФЕЙ"
Режиссер: Максим Сальник
Ведущий: Максим Сальник
Сюжет фильма:
Выпуск 01 - Ловля леща в Киеве. Выезд на пляж под Южный мост с целью понять есть ли там рыба и разведать точку.

Выпуск 02 - Осенняя ловля белой рыбы на диком Днепре. Выезд на дикий не зарегулированный Днепр на границе с Беларуcью - Дамауха.

Выпуск 03 - Прикормка и оснастка для ловли трофейного леща в ноябре. Рассказ о двух ноябрьских рыбалках прошедших с интервалом в несколько дней и их итог. Разговор пойдет о приготовлении прикормки для ловли леща с добавлением глины, оснастки и кормушках для ловли на течении с бровой.

Качество видео: WEBRip

Продолжительность: 3 х ~00:50:00
Формат: AVI
Видео: XviD, 720x480, ~1791 kbps
Аудио: русский, (оригинал), MP3 2.0, ~256 kbps

Код:

Общее
Полное имя : D:\100 рыбалок\01. Ловля леща в Киеве.avi
Формат : AVI
Формат/Информация : Audio Video Interleave
Размер файла : 666 Мбайт
Продолжительность : 45 м.
Общий поток : 2059 Кбит/сек
Программа кодирования : Lavf56.25.101

Видео
Идентификатор : 0
Формат : xvid
Идентификатор кодека : xvid
Продолжительность : 45 м.
Битрейт : 1791 Кбит/сек
Ширина : 720 пикселей
Высота : 480 пикселей
Соотношение сторон : 3:2
Частота кадров : 25,000 кадров/сек
Бит/(Пиксели*Кадры) : 0.207
Размер потока : 580 Мбайт (87%)

Аудио
Идентификатор : 1
Формат : MPEG Audio
Версия формата : Version 1
Профиль формата : Layer 3
Режим : Joint stereo
Идентификатор кодека : 55
Идентификатор кодека/Подсказка : MP3
Продолжительность : 45 м.
Вид битрейта : Постоянный
Битрейт : 256 Кбит/сек
Каналы : 2 канала
Частота : 44,1 КГц
Метод сжатия : С потерями
Размер потока : 82,9 Мбайт (12%)
Выравнивание : Соединение по промежуткам
Продолжительность промежутка : 26 мс. (0,65 видеокадр)
Время предзагрузки промежутка : 26 мс.
Библиотека кодирования : LAME3.99.5
picpicpicpicpic
Для увеличения картинки щелкните мышкой по превью

Этот торрент недоступен для скачивания без регистрации, однако доступен по публичной magnet-ссылке (источники с публичных трекеров). Перед использованием ссылки прочтите, пожалуйста Пользовательское соглашение, а также как можно дольше оставайтесь на раздаче! Для того, чтобы скачать сам торрент-файл (который видит больше источников), а также для того, чтобы поблагодарить релизера, вам необходимо зарегистрироваться. Если регистрироваться лень - вы можете также попробовать скачать релиз по нашим партнерским ссылкам ниже.

[underverse.su].t65092.torrent
Трекер: Зарегистрирован   [ 12.04.2016 17:06 ]  

Статус: проверено (by makkol at 15.04.2016 11:56)
Поблагодарили: пока никто не поблагодарил...
Тип торрента: публичный - доступные источники с открытых трекеров: 
Размер: 1,83 GB (занимает 0,42 DVDR, для записи нужно 1 болванка DVDR/RW)
 
 

Яндекс.Метрика powered by Sphinx


В Н И М А Н И Е
Сайт не распространяет и не хранит электронные версии произведений, а лишь бесплатно и без коммерческой выгоды (не требуя взамен платы,
SMS и т.д.) предоставляет доступ к создаваемому пользователями каталогу ссылок на торрент-файлы, которые содержат только списки хеш-сумм.
Убедительная просьба с жалобами обращаться напрямую к пользователю, разместившему торрент файл.

Вверх