Loading...
Error

Эдуард Асадов. Сражаюсь, верую, люблю! [1986 г., документальный, биография, поэзия, SatRip]

Статистика раздачи
Размер:  643 MB   |    Зарегистрирован:  1 год 5 месяцев   |    Скачан:  5 раз

Полного источника не было: 1 год 2 месяца

Сидов:  0  |  0 KB/s  ]   Личеров:  0  |  0 KB/s  ]

* - сиды/пиры с внешних источников

   
 
Автор Сообщение

ARI71 Пол:Муж

11-Апр-2016 16:39

Эдуард Асадов. Сражаюсь, верую, люблю!


Год выпуска: 1986
Жанр: документальный, биография, поэзия
Страна: СССР
Режиссер: Евгений Лисконог
В ролях: Эдуард Асадов
Сюжет фильма:
Стихи Эдуарда Асадова редко хвалили серьезные литераторы. Но если московская молодежь 60-х кричала с трибун стихи Евтушенко, Вознесенского и Рождественского, если ленинградские интеллигенты 60-х приглушенным шепотом декларировали на кухнях Бродского, Рейна, Бобышева, то романтические барышни всей страны Советов роняли слёзы над "Стихами о рыжей дворняге" - и почитали Асадова как своего кумира.
Асадов был награжден орденами Ленина, Отечественной войны I степени, Красной Звезды, орденом Дружбы народов, двумя орденами "Знак Почёта", орденом Почёта (1998), "За заслуги перед Отечеством" IV степени (2004), медалями "За оборону Ленинграда", "За оборону Севастополя", "За победу над Германией". Указом постоянного Президиума Съезда народных депутатов СССР от 18 ноября 1988 года ему было присвоено звание Героя Советского Союза.

Эдуард Аркадьевич (Арташесович) Асадов (7 сентября 1923, Мерв, Туркестанская АССР, РСФСР, СССР — 21 апреля 2004, Одинцово, Московская область, Россия) — советский поэт, прозаик

Качество видео: SatRip

Продолжительность: 00:49:57
Формат: AVI
Видео: XviD, 704x528, ~1660 kbps
Аудио: русский, (оригинал), MP3 2.0, ~128.00 kbps

Код:

Общее
Полное имя : D:\Эдуард Асадов. Сражаюсь, верую, люблю [1986].avi
Формат : AVI
Формат/Информация : Audio Video Interleave
Размер файла : 643 Мбайт
Продолжительность : 49 м.
Общий поток : 1798 Кбит/сек
Программа кодирования : VirtualDubMod 1.5.10.2 (build 2540/release)
Библиотека кодирования : VirtualDubMod build 2540/release

Видео
Идентификатор : 0
Формат : MPEG-4 Visual
Профиль формата : Advanced Simple@L5
Параметр BVOP формата : 2
Параметр QPel формата : Нет
Параметр GMC формата : Без точки перехода
Параметр матрицы формата : Default (H.263)
Режим смешивания : Сжатый битовый поток
Идентификатор кодека : XVID
Идентификатор кодека/Подсказка : XviD
Продолжительность : 49 м.
Битрейт : 1660 Кбит/сек
Ширина : 704 пикселя
Высота : 528 пикселей
Соотношение сторон : 4:3
Частота кадров : 25,000 кадров/сек
Цветовое пространство : YUV
Субдискретизация насыщенности : 4:2:0
Битовая глубина : 8 бит
Тип развёртки : Прогрессивная
Метод сжатия : С потерями
Бит/(Пиксели*Кадры) : 0.179
Размер потока : 593 Мбайт (92%)
Библиотека кодирования : XviD 1.0.3 (UTC 2004-12-20)

Аудио
Идентификатор : 1
Формат : MPEG Audio
Версия формата : Version 1
Профиль формата : Layer 3
Режим : Joint stereo
Идентификатор кодека : 55
Идентификатор кодека/Подсказка : MP3
Продолжительность : 49 м.
Вид битрейта : Постоянный
Битрейт : 128 Кбит/сек
Каналы : 2 канала
Частота : 48,0 КГц
Метод сжатия : С потерями
Размер потока : 45,7 Мбайт (7%)
Выравнивание : Соединение по промежуткам
Продолжительность промежутка : 40 мс. (1,00 видеокадр)
Время предзагрузки промежутка : 504 мс.
picpicpicpicpic
Для увеличения картинки щелкните мышкой по превью

Этот торрент недоступен для скачивания без регистрации, однако доступен по публичной magnet-ссылке (источники с публичных трекеров). Перед использованием ссылки прочтите, пожалуйста Пользовательское соглашение, а также как можно дольше оставайтесь на раздаче! Для того, чтобы скачать сам торрент-файл (который видит больше источников), а также для того, чтобы поблагодарить релизера, вам необходимо зарегистрироваться. Если регистрироваться лень - вы можете также попробовать скачать релиз по нашим партнерским ссылкам ниже.

[underverse.su].t65074.torrent
Трекер: Зарегистрирован   [ 11.04.2016 16:39 ]  

Статус: проверено (by makkol at 11.04.2016 22:07)
Поблагодарили: 1 человек
Тип торрента: публичный - доступные источники с открытых трекеров: 
Размер: 643 MB (занимает 0,14 DVDR, для записи нужно 1 болванка DVDR/RW)
 
 

ARI71 Пол:Муж

18-Апр-2016 09:54

По разным вопросам, просьбам пишите мне в ЛС

Яндекс.Метрика powered by Sphinx


В Н И М А Н И Е
Сайт не распространяет и не хранит электронные версии произведений, а лишь бесплатно и без коммерческой выгоды (не требуя взамен платы,
SMS и т.д.) предоставляет доступ к создаваемому пользователями каталогу ссылок на торрент-файлы, которые содержат только списки хеш-сумм.
Убедительная просьба с жалобами обращаться напрямую к пользователю, разместившему торрент файл.

Вверх