Loading...
Error

Прощание. Людмила Гурченко [2015 г., документальный, биография, SatRip]

Статистика раздачи
Размер:  479 MB   |    Зарегистрирован:  7 месяцев   |    Скачан:  4 раза

Полного источника не было: 4 месяца 4 дня

Сидов:  0  |  0 KB/s  ]   Личеров:  0  |  0 KB/s  ]

* - сиды/пиры с внешних источников

   
 
Автор Сообщение

ARI71 Пол:Муж

11-Апр-2016 16:08

Прощание. Людмила Гурченко


Год выпуска: 2015
Жанр: документальный, биография
Страна: Россия ТВЦ
Сюжет фильма:
Прощание с Людмилой Гурченко побило рекорд по количеству сплетен – гроб несли муж и молодой любовник, накануне она сделала очередную пластическую операцию, её дочь пришла на похороны исключительно из-за наследства, а её бывший муж Иосиф Кобзон придумал причину, чтобы не приходить вообще… Что правда, а что оскорбительная ложь?

Людми́ла Ма́рковна Гу́рченко — (12 ноября 1935 года, Харьков — 30 марта 2011 года, Москва) — советская и российская актриса театра и кино, эстрадная певица. Лауреат Государственной премии РСФСР им. братьев Васильевых (1976). Лауреат Государственной премии Российской Федерации (1994). Народная артистка СССР (1983)

Качество видео: SatRip

Продолжительность: 00:38:31
Формат: AVI
Видео: XviD, 720x400, ~1536 kbps
Аудио: русский, (оригинал), AC3 2.0, ~192.00 kbps

Код:

Общее
Полное имя : D:\Прощание.01.Людмила Гурченко.2015.Generalfilm.avi
Формат : AVI
Формат/Информация : Audio Video Interleave
Размер файла : 479 Мбайт
Продолжительность : 38 м.
Общий поток : 1738 Кбит/сек
Программа кодирования : VirtualDubMod 1.5.10.3 | www.virtualdub-fr.org || (build 2550/release)
Библиотека кодирования : VirtualDubMod build 2550/release

Видео
Идентификатор : 0
Формат : MPEG-4 Visual
Профиль формата : Advanced Simple@L5
Параметр BVOP формата : 1
Параметр QPel формата : Нет
Параметр GMC формата : Без точки перехода
Параметр матрицы формата : Выборочная
Идентификатор кодека : XVID
Идентификатор кодека/Подсказка : XviD
Продолжительность : 38 м.
Битрейт : 1536 Кбит/сек
Ширина : 720 пикселей
Высота : 400 пикселей
Соотношение сторон : 16:9
Частота кадров : 25,000 кадров/сек
Цветовое пространство : YUV
Субдискретизация насыщенности : 4:2:0
Битовая глубина : 8 бит
Тип развёртки : Прогрессивная
Метод сжатия : С потерями
Бит/(Пиксели*Кадры) : 0.213
Размер потока : 423 Мбайт (88%)
Библиотека кодирования : XviD 73

Аудио
Идентификатор : 1
Формат : AC-3
Формат/Информация : Audio Coding 3
Расширение режима : CM (complete main)
Параметр Endianness формата : Big
Идентификатор кодека : 2000
Продолжительность : 38 м.
Вид битрейта : Постоянный
Битрейт : 192 Кбит/сек
Каналы : 2 канала
Расположение каналов : Front: L R
Частота : 48,0 КГц
Метод сжатия : С потерями
Размер потока : 52,9 Мбайт (11%)
Выравнивание : Разделение по промежуткам
Продолжительность промежутка : 40 мс. (1,00 видеокадр)
Время предзагрузки промежутка : 500 мс.
Релиз группы:

picpicpicpicpic
Для увеличения картинки щелкните мышкой по превью

Этот торрент недоступен для скачивания без регистрации, однако доступен по публичной magnet-ссылке (источники с публичных трекеров). Перед использованием ссылки прочтите, пожалуйста Пользовательское соглашение, а также как можно дольше оставайтесь на раздаче! Для того, чтобы скачать сам торрент-файл (который видит больше источников), а также для того, чтобы поблагодарить релизера, вам необходимо зарегистрироваться. Если регистрироваться лень - вы можете также попробовать скачать релиз по нашим партнерским ссылкам ниже.

[underverse.su].t65073.torrent
Трекер: Зарегистрирован   [ 11.04.2016 16:08 ]  

Статус: проверено (by makkol at 11.04.2016 16:19)
Поблагодарили: 1 человек
Тип торрента: публичный - доступные источники с открытых трекеров: 
Размер: 479 MB (занимает 0,11 DVDR, для записи нужно 1 болванка DVDR/RW)
 
 
Похожие темы
Форум Тема Автор Торрент Отв. Посл. сооб.
Личности Прощание. Роман Трахтенберг [2016 г., документальный, биография, SatRip] ARI71
3 | 0

0 | 261

4

02.12.2016 11:09

Личности Прощание. (Трус, Балбес и Бывалый) [2016 г., документальный, биография, кинематограф, SatRip] ARI71
3 | 1

0 | 556

11

15.03.2016 21:03

Личности Прощание. Владимир Высоцкий [2015 г., документальный цикл, биография, SatRip] ARI71
1 | 0

0 | 729

14

10.04.2016 16:29


Яндекс.Метрика powered by Sphinx


В Н И М А Н И Е
Сайт не распространяет и не хранит электронные версии произведений, а лишь бесплатно и без коммерческой выгоды (не требуя взамен платы,
SMS и т.д.) предоставляет доступ к создаваемому пользователями каталогу ссылок на торрент-файлы, которые содержат только списки хеш-сумм.
Убедительная просьба с жалобами обращаться напрямую к пользователю, разместившему торрент файл.

Вверх