Loading...
Error

Перевозчик / Разносчик / Карьер / The Carrier (Энтони Вудли) [2015 г., фантастика, боевик, триллер, драма, WEB-DLRip] DVO + Original

Статистика раздачи
Размер:  1,37 GB   |    Зарегистрирован:  7 месяцев   |    Скачан:  43 раза

Полного источника не было: 7 часов

Сидов:  0  |  0 KB/s  ]   Личеров:  0  |  0 KB/s  ]

* - сиды/пиры с внешних источников

   
 
Автор Сообщение

makkol Пол:Муж

11-Апр-2016 11:52

Перевозчик / Разносчик / Карьер / The Carrier


Год выпуска: 2015
Жанр: фантастика, боевик, триллер, драма
Производство: Великобритания [Future Masters of Technology, Megatopia Films, Premiere Picture, SPEIS Limited]
Режиссер: Энтони Вудли
В ролях: Джек Гордон, Джо Диксон, Эдмунд Кингсли, Жозефин Тэйлор, Карен Брайсон, Люси-Джейн Куинлэн, Джеймс Пэйтон, Ребекка Джонсон, Зора Бишоп, Люк Хили
Сюжет фильма:
Англия oхваченa смертельным неизлeчимым вирусoм. По мере того, кaк инфекция продoлжает распрoстраняться, пoследним oплотом бeзoпаснoсти для немногих счастливчиков становится поврежденный Боинг 747. Однако один из них оказывается зараженнным, и теперь им предстоит решать, стоит ли немедленно садиться и где...

  • Мировая премьера: 15 июля 2015


Качество видео: WEB-DLRip

Продолжительность: 01:39:43
Формат: AVI
Видео: XviD, 720x304 (2.35:1), 24.000 fps, 1820 kbps
Аудио #1: русский, любительский двухголосый закадровый, AC3 2.0, 48 kHz, 192 kbps
Аудио #2: английский, оригинал, AC3 2.0, 48 kHz, 192 kbps

Код:

Формат                                   : AVI
Формат/Информация                        : Audio Video Interleave
Размер файла                             : 1,37 Гбайт
Продолжительность                        : 1 ч. 28 м.
Общий поток                              : 2218 Кбит/сек
Программа кодирования                    : VirtualDubMod 1.5.10.3 | www.virtualdub-fr.org || (build 2550/release)
Библиотека кодирования                   : VirtualDubMod build 2550/release

Видео
Идентификатор                            : 0
Формат                                   : MPEG-4 Visual
Профиль формата                          : Advanced Simple@L5
Параметр BVOP формата                    : 2
Параметр QPel формата                    : Нет
Параметр GMC формата                     : Без точки перехода
Параметр матрицы формата                 : Default (H.263)
Режим смешивания                         : Сжатый битовый поток
Идентификатор кодека                     : XVID
Идентификатор кодека/Подсказка           : XviD
Продолжительность                        : 1 ч. 28 м.
Битрейт                                  : 1820 Кбит/сек
Ширина                                   : 720 пикселей
Высота                                   : 304 пикселя
Соотношение сторон                       : 2,35:1
Частота кадров                           : 24,000 кадра/сек
Цветовое пространство                    : YUV
Субдискретизация насыщенности            : 4:2:0
Битовая глубина                          : 8 бит
Тип развёртки                            : Прогрессивная
Метод сжатия                             : С потерями
Бит/(Пиксели*Кадры)                      : 0.346
Размер потока                            : 1,12 Гбайт (82%)
Библиотека кодирования                   : XviD 66

Аудио #1
Идентификатор                            : 1
Формат                                   : AC-3
Формат/Информация                        : Audio Coding 3
Расширение режима                        : CM (complete main)
Параметр Endianness формата              : Big
Идентификатор кодека                     : 2000
Продолжительность                        : 1 ч. 28 м.
Вид битрейта                             : Постоянный
Битрейт                                  : 192 Кбит/сек
Каналы                                   : 2 канала
Расположение каналов                     : Front: L R
Частота                                  : 48,0 КГц
Частота кадров                           : 31,250 кадров/сек (1536 spf)
Метод сжатия                             : С потерями
Размер потока                            : 121 Мбайт (9%)
Выравнивание                             : Разделение по промежуткам
Продолжительность промежутка             : 42  мс. (1,00 видеокадр)
Время предзагрузки промежутка            : 500  мс.

Аудио #2
Идентификатор                            : 2
Формат                                   : AC-3
Формат/Информация                        : Audio Coding 3
Расширение режима                        : CM (complete main)
Параметр Endianness формата              : Big
Идентификатор кодека                     : 2000
Продолжительность                        : 1 ч. 28 м.
Вид битрейта                             : Постоянный
Битрейт                                  : 192 Кбит/сек
Каналы                                   : 2 канала
Расположение каналов                     : Front: L R
Частота                                  : 48,0 КГц
Частота кадров                           : 31,250 кадров/сек (1536 spf)
Метод сжатия                             : С потерями
Размер потока                            : 121 Мбайт (9%)
Выравнивание                             : Разделение по промежуткам
Продолжительность промежутка             : 42  мс. (1,00 видеокадр)
Время предзагрузки промежутка            : 500  мс.
Релиз без рекламы


picpicpicpicpic
Для увеличения картинки щелкните мышкой по превью

Этот торрент недоступен для скачивания без регистрации, однако доступен по публичной magnet-ссылке (источники с публичных трекеров). Перед использованием ссылки прочтите, пожалуйста Пользовательское соглашение, а также как можно дольше оставайтесь на раздаче! Для того, чтобы скачать сам торрент-файл (который видит больше источников), а также для того, чтобы поблагодарить релизера, вам необходимо зарегистрироваться. Если регистрироваться лень - вы можете также попробовать скачать релиз по нашим партнерским ссылкам ниже.

[underverse.su].t65069.torrent
Трекер: Зарегистрирован   [ 11.04.2016 11:52 ]  

Статус: проверено (by makkol at 13.04.2016 23:51)
Поблагодарили: пока никто не поблагодарил...
Тип торрента: публичный - доступные источники с открытых трекеров: 
Размер: 1,37 GB (занимает 0,31 DVDR, для записи нужно 1 болванка DVDR/RW)
 
 
Похожие темы
Форум Тема Автор Торрент Отв. Посл. сооб.
Зарубежное кино [DVDRip, Low-Res HDRip, и т.д.] Перевозчик / The Transporter (Луис Летерье, Кори Юэнь) [2002 г., триллер, криминальный, боевик, BDRip] GUree
0 | 0

0 | 987

2

25.07.2009 08:35

Зарубежное кино [DVDRip, Low-Res HDRip, и т.д.] Перевозчик 2 / Transporter 2 (Луи Летерье) [2005 г., боевик, триллер, криминальный, BDRip] GUree
0 | 0

0 | 1424

1

25.07.2009 08:54

Зарубежное кино [DVDRip, Low-Res HDRip, и т.д.] Перевозчик 3 / Transporter 3 (Оливье Мегатон) [2008 г., боевик, триллер, криминальный, BDRip] GUree
0 | 1

0 | 1303

0

25.07.2009 09:04

Зарубежное кино [DVDRip, Low-Res HDRip, и т.д.] Перевозчик: Наследие / The Transporter Refueled (Камиль Деламарр) [2015 г., боевик, триллер, криминал, HDRip] Dub makkol
4 | 0

0 | 766

57

11.12.2015 11:53

Зарубежное кино [DVDRip, Low-Res HDRip, и т.д.] Перевозчик: Наследие / The Transporter Refueled (Камиль Деламарр / Camille Delamarre) [2015 г., боевик, триллер, криминал, BDRip-AVC] [Rus-Transfer] Dub + Sub (Eng) 90ytr90
16 | 0

0 | 571

27

31.01.2016 14:10

Зарубежное кино [DVDRip, Low-Res HDRip, и т.д.] Перевозчик: Наследие / The Transporter Refueled (Камиль Деламарр / Camille Delamarre) [2015 г., боевик, триллер, криминал, BDRip-AVC] [Rus-Transfer] Dub + Original (Eng) + Sub (Eng) 90ytr90
26 | 1

0 | 503

14

31.01.2016 14:16

Зарубежное кино [DVDRip, Low-Res HDRip, и т.д.] Перевозчик: Наследие / The Transporter Refueled (Камиль Деламарр / Camille Delamarre) [2015 г., боевик, триллер, криминал, BDRip] Dub 90ytr90
5 | 0

0 | 532

11

31.01.2016 14:40

Зарубежное кино [DVD / HDDVD / BD / Remux] Перевозчик 3 / Transporter 3 (Оливье Мегатон / Olivier Megaton) [2008, боевик, Blu-ray] uzi2009
4 | 3

0 | 758

4

27.01.2014 10:34

Зарубежное кино [DVD / HDDVD / BD / Remux] Перевозчик 2 / Transporter 2 (Луи Летерье / Louis Leterrier) [2005 г., боевик, триллер, криминал, Blu-Ray] uzi2009
1 | 0

0 | 688

3

27.01.2014 10:42

Зарубежное кино [HDDVDRip / BDRip / WEB-DL / HDTV 1080/720р] Перевозчик: Наследие / The Transporter Refueled (Камиль Деламарр) [2015 г., боевик, триллер, криминал, BDRip 720p] Dub + Original makkol
2 | 0

0 | 651

17

11.12.2015 12:17


Яндекс.Метрика powered by Sphinx


В Н И М А Н И Е
Сайт не распространяет и не хранит электронные версии произведений, а лишь бесплатно и без коммерческой выгоды (не требуя взамен платы,
SMS и т.д.) предоставляет доступ к создаваемому пользователями каталогу ссылок на торрент-файлы, которые содержат только списки хеш-сумм.
Убедительная просьба с жалобами обращаться напрямую к пользователю, разместившему торрент файл.

Вверх