Loading...
Error

Прощание. Владимир Высоцкий [2015 г., документальный цикл, биография, SatRip]

Статистика раздачи
Размер:  489 MB   |    Зарегистрирован:  7 месяцев   |    Скачан:  14 раз

Полного источника не было: 12 дней

Сидов:  0  |  0 KB/s  ]   Личеров:  0  |  0 KB/s  ]

* - сиды/пиры с внешних источников

   
 
Автор Сообщение

ARI71 Пол:Муж

10-Апр-2016 16:29

Прощание. Владимир Высоцкий


Год выпуска: 2015
Жанр: документальный цикл, биография
Страна: Россия ТВЦ
Сюжет фильма:
По сводкам столичной милиции, 28 июля 1980 года проводить Высоцкого в мир иной пришло... 110 тысяч человек! Манифестация парализовала движение в городе. Это были проводы не просто актёра и поэта, а настоящего кумира. Смерть Высоцкого оставила много вопросов. В дни прощания с Высоцким многие люди говорили, что произошло убийство...

Влади́мир Семёнович Высо́цкий — (25 января 1938, Москва — 25 июля 1980, Москва) — выдающийся советский актёр театра и кино, поэт и автор-исполнитель песен, автор прозаических произведений. Лауреат Государственной премии СССР (1987, посмертно).

Качество видео: SatRip

Продолжительность: 00:39:18
Формат: AVI
Видео: XviD, 720x400, ~1536 kbps
Аудио: русский, (оригинал), AC3 2.0, ~192.00 kbps

Код:

Общее
Полное имя : D:\Прощание.02.Владимир Высоцкий.2015.Generalfilm.avi
Формат : AVI
Формат/Информация : Audio Video Interleave
Размер файла : 489 Мбайт
Продолжительность : 39 м.
Общий поток : 1738 Кбит/сек
Программа кодирования : VirtualDubMod 1.5.10.3 | www.virtualdub-fr.org || (build 2550/release)
Библиотека кодирования : VirtualDub build 29808/release

Видео
Идентификатор : 0
Формат : MPEG-4 Visual
Профиль формата : Advanced Simple@L5
Параметр BVOP формата : 1
Параметр QPel формата : Нет
Параметр GMC формата : Без точки перехода
Параметр матрицы формата : Выборочная
Идентификатор кодека : XVID
Идентификатор кодека/Подсказка : XviD
Продолжительность : 39 м.
Битрейт : 1536 Кбит/сек
Ширина : 720 пикселей
Высота : 400 пикселей
Соотношение сторон : 16:9
Частота кадров : 25,000 кадров/сек
Цветовое пространство : YUV
Субдискретизация насыщенности : 4:2:0
Битовая глубина : 8 бит
Тип развёртки : Прогрессивная
Метод сжатия : С потерями
Бит/(Пиксели*Кадры) : 0.213
Размер потока : 432 Мбайт (88%)
Библиотека кодирования : XviD 73

Аудио
Идентификатор : 1
Формат : AC-3
Формат/Информация : Audio Coding 3
Расширение режима : CM (complete main)
Параметр Endianness формата : Big
Идентификатор кодека : 2000
Продолжительность : 39 м.
Вид битрейта : Постоянный
Битрейт : 192 Кбит/сек
Каналы : 2 канала
Расположение каналов : Front: L R
Частота : 48,0 КГц
Метод сжатия : С потерями
Размер потока : 54,0 Мбайт (11%)
Выравнивание : Разделение по промежуткам
Продолжительность промежутка : 40 мс. (1,00 видеокадр)
Время предзагрузки промежутка : 500 мс.
Релиз группы:

picpicpicpicpic
Для увеличения картинки щелкните мышкой по превью

Этот торрент недоступен для скачивания без регистрации, однако доступен по публичной magnet-ссылке (источники с публичных трекеров). Перед использованием ссылки прочтите, пожалуйста Пользовательское соглашение, а также как можно дольше оставайтесь на раздаче! Для того, чтобы скачать сам торрент-файл (который видит больше источников), а также для того, чтобы поблагодарить релизера, вам необходимо зарегистрироваться. Если регистрироваться лень - вы можете также попробовать скачать релиз по нашим партнерским ссылкам ниже.

[underverse.su].t65057.torrent
Трекер: Зарегистрирован   [ 10.04.2016 16:29 ]  

Статус: проверено (by makkol at 10.04.2016 21:56)
Поблагодарили: 1 человек
Тип торрента: публичный - доступные источники с открытых трекеров: 
Размер: 489 MB (занимает 0,11 DVDR, для записи нужно 1 болванка DVDR/RW)
 
 
Похожие темы
Форум Тема Автор Торрент Отв. Посл. сооб.
Личности Прощание. Роман Трахтенберг [2016 г., документальный, биография, SatRip] ARI71
3 | 0

0 | 259

4

02.12.2016 11:09

Личности Прощание. (Трус, Балбес и Бывалый) [2016 г., документальный, биография, кинематограф, SatRip] ARI71
3 | 1

0 | 554

11

15.03.2016 21:03

Личности Прощание. Людмила Гурченко [2015 г., документальный, биография, SatRip] ARI71
0 | 1

0 | 492

4

11.04.2016 16:08


Яндекс.Метрика powered by Sphinx


В Н И М А Н И Е
Сайт не распространяет и не хранит электронные версии произведений, а лишь бесплатно и без коммерческой выгоды (не требуя взамен платы,
SMS и т.д.) предоставляет доступ к создаваемому пользователями каталогу ссылок на торрент-файлы, которые содержат только списки хеш-сумм.
Убедительная просьба с жалобами обращаться напрямую к пользователю, разместившему торрент файл.

Вверх