Loading...
Error

Цари и пророки / Of Kings And Prophets (1 сезон, серия 1-3 из 13) (Дуан Кларк, Джеффри Начманофф) [2016 г., драма, исторический, WEB-DLRip] MVO (BaibaKo) + Original

Статистика раздачи
Размер:  1,66 GB   |    Зарегистрирован:  7 месяцев   |    Скачан:  5 раз

Полного источника не было: 6 часов

Сидов:  0  |  0 KB/s  ]   Личеров:  0  |  0 KB/s  ]

* - сиды/пиры с внешних источников

   
 
Автор Сообщение

Dimashark40 Пол:Муж

09-Апр-2016 21:12

Цари и пророки / Of Kings And Prophets (1 сезон, серия 1-3 из 13)


Год выпуска: 2016
Жанр: драма, исторический
Страна: США
Режиссер: Дуан Кларк, Джеффри Начманофф
В ролях: Джеймс Флойд, Мохаммад Бакри, Марк Иванир, Симона Кэссел, Алекс МакГрегор, Мэйси Ричардсон-Селлерс, Оливер Рикс, Джо Ваз, Бретт Лоуренс Уильямс, Рэй Уинстон и др.
Сюжет фильма:
Цари и пророки» — библейское сказание об амбициях и коварстве. Эпопея об измождённом войнами царе Сауле, всесильном и гордом пророке и находчивом юном пастухе. Действие разворачивается более 2000 лет назад, в эпоху Ветхого Завета.

Качество видео: WEB-DLRip

Продолжительность: ~40:00
Формат: MP4
Видео: x264, AVC Baseline@L3 1536 Кбит/сек 720x400 (1.800) 25,000 кадра/сек , kbps
Аудио #1: русский, многоголосый закадровый [любительский, BaibaKo], AАC 2.0, 160 Кбит/сек 2 канала 48,0 КГц
Аудио #2: английский, оригинал, AАC 2.0, 160 Кбит/сек 2 канала 48,0 КГц

Код:

Формат                                   : MPEG-4
Профиль формата                          : Base Media
Идентификатор кодека                     : isom (isom)
Размер файла                             : 545 Мбайт
Продолжительность                        : 40 м.
Режим общего битрейта                    : Переменный
Общий поток                              : 1860 Кбит/сек
Дата кодирования                         : UTC 2016-03-31 04:44:49
Дата пометки                             : UTC 2016-03-31 04:44:49

Видео
Идентификатор                            : 1
Формат                                   : AVC
Формат/Информация                        : Advanced Video Codec
Профиль формата                          : Baseline@L3
Параметр CABAC формата                   : Нет
Параметр ReFrames формата                : 3 кадра
Идентификатор кодека                     : avc1
Идентификатор кодека/Информация          : Advanced Video Coding
Продолжительность                        : 40 м.
Битрейт                                  : 1536 Кбит/сек
Максимальный битрейт                     : 6727 Кбит/сек
Ширина                                   : 720 пикселей
Высота                                   : 400 пикселей
Соотношение сторон                       : 16:9
Режим частоты кадров                     : Постоянный
Частота кадров                           : 25,000 кадров/сек
Цветовое пространство                    : YUV
Субдискретизация насыщенности            : 4:2:0
Битовая глубина                          : 8 бит
Тип развёртки                            : Прогрессивная
Бит/(Пиксели*Кадры)                      : 0.213
Размер потока                            : 450 Мбайт (83%)
Библиотека кодирования                   : x264 core 142 r2479 dd79a61
Настройки программы                      : cabac=0 / ref=3 / deblock=1:0:0 / analyse=0x1:0x111 / me=hex / subme=7 / psy=1 / psy_rd=1.00:0.00 / mixed_ref=1 / me_range=16 / chroma_me=1 / trellis=1 / 8x8dct=0 / cqm=0 / deadzone=21,11 / fast_pskip=1 / chroma_qp_offset=-2 / threads=12 / lookahead_threads=2 / sliced_threads=0 / nr=0 / decimate=1 / interlaced=0 / bluray_compat=0 / constrained_intra=0 / bframes=0 / weightp=0 / keyint=250 / keyint_min=25 / scenecut=40 / intra_refresh=0 / rc_lookahead=40 / rc=2pass / mbtree=1 / bitrate=1536 / ratetol=1.0 / qcomp=0.60 / qpmin=0 / qpmax=69 / qpstep=4 / cplxblur=20.0 / qblur=0.5 / vbv_maxrate=10000 / vbv_bufsize=10000 / nal_hrd=none / filler=0 / ip_ratio=1.40 / aq=1:1.00
Дата кодирования                         : UTC 2016-03-31 04:27:22
Дата пометки                             : UTC 2016-03-31 04:44:54
Цветовой диапазон                        : Limited
Основные цвета                           : BT.709
Характеристики трансфера                 : BT.709
Коэффициенты матрицы                     : BT.709

Аудио #1
Идентификатор                            : 2
Формат                                   : AAC
Формат/Информация                        : Advanced Audio Codec
Профиль формата                          : LC
Идентификатор кодека                     : 40
Продолжительность                        : 40 м.
Вид битрейта                             : Переменный
Битрейт                                  : 160 Кбит/сек
Максимальный битрейт                     : 168 Кбит/сек
Каналы                                   : 2 канала
Расположение каналов                     : Front: L R
Частота                                  : 48,0 КГц
Частота кадров                           : 46,875 кадров/сек (1024 spf)
Метод сжатия                             : С потерями
Размер потока                            : 46,9 Мбайт (9%)
Язык                                     : Russian
Дата кодирования                         : UTC 2016-03-31 04:44:51
Дата пометки                             : UTC 2016-03-31 04:44:54

Аудио #2
Идентификатор                            : 3
Формат                                   : AAC
Формат/Информация                        : Advanced Audio Codec
Профиль формата                          : LC
Идентификатор кодека                     : 40
Продолжительность                        : 40 м.
Вид битрейта                             : Переменный
Битрейт                                  : 160 Кбит/сек
Максимальный битрейт                     : 168 Кбит/сек
Каналы                                   : 2 канала
Расположение каналов                     : Front: L R
Частота                                  : 48,0 КГц
Частота кадров                           : 46,875 кадров/сек (1024 spf)
Метод сжатия                             : С потерями
Размер потока                            : 46,9 Мбайт (9%)
Язык                                     : English
Дата кодирования                         : UTC 2016-03-31 04:44:52
Дата пометки                             : UTC 2016-03-31 04:44:54
pic
Для увеличения картинки щелкните мышкой по превью


ВНИМАНИЕ! Обновляемая раздача!
Внимание! Раздача ведётся путём добавления новых серий; при каждом добавлении создаётся новый торрент. Чтобы начать докачку новой серии, пользователям необходимо сделать следующее:
(1) остановить скачивание,
(2) удалить старый торрент у себя из клиента (старые серии удалять не надо),
(3) скачать новый торрент и запустить его у себя в клиенте вместо старого, при этом указать клиенту путь в старую папку куда и должно происходить скачивание новых серий.

Ваш клиент при этом должен произвести хеширование (проверку) старой папки (если не производит сам - помогите ему сделать это), и будет докачивать только те серии которых у вас ещё нет. Старые серии при этом не удаляются, а продолжают раздаваться!

Eсли вы уже удалили старые серии, то предотвратить повторную закачку старых серий можно, отжав галочку в соответствующих местах при запуске нового торрента. По возможности, желательно не удалять старые серии как можно дольше чтобы релизёр не столько продолжал раздавать старые серии, а смог сконцентрироваться на новых.
Релиз-группа:

Этот торрент недоступен для скачивания без регистрации, однако доступен по публичной magnet-ссылке (источники с публичных трекеров). Перед использованием ссылки прочтите, пожалуйста Пользовательское соглашение, а также как можно дольше оставайтесь на раздаче! Для того, чтобы скачать сам торрент-файл (который видит больше источников), а также для того, чтобы поблагодарить релизера, вам необходимо зарегистрироваться. Если регистрироваться лень - вы можете также попробовать скачать релиз по нашим партнерским ссылкам ниже.

[underverse.su].t65040.torrent
Трекер: Зарегистрирован   [ 09.04.2016 21:12 ]  

Статус: ? недооформлено (by makkol at 09.04.2016 21:59)
Поблагодарили: 1 человек
Тип торрента: публичный - доступные источники с открытых трекеров: 
Размер: 1,66 GB (занимает 0,38 DVDR, для записи нужно 1 болванка DVDR/RW)
 
 


Последний раз редактировалось: Dimashark40 (10.04.2016 14:19), всего редактировалось 5 раз(а)

makkol Пол:Муж

09-Апр-2016 21:58

Со скринами накладка. Нужно было вставлять ссылки именно на полноразмерные скриншоты, а не на превьюшки.

В техданных лёгкая путаница и неразбериха:
Формат: другой (указать) - ??? (подсказка - MP4)
Видео 23,976 кадра/сек, а в медиаинфо - 25,000 кадров/сек
В аудио значится и AAC, и AC3 (судя по медиаинфо всё-таки AAC), и 2.0 и 2 канала одновременно...

Яндекс.Метрика powered by Sphinx


В Н И М А Н И Е
Сайт не распространяет и не хранит электронные версии произведений, а лишь бесплатно и без коммерческой выгоды (не требуя взамен платы,
SMS и т.д.) предоставляет доступ к создаваемому пользователями каталогу ссылок на торрент-файлы, которые содержат только списки хеш-сумм.
Убедительная просьба с жалобами обращаться напрямую к пользователю, разместившему торрент файл.

Вверх