Loading...
Error

Леонид Быков (Встречная полоса) [2013 г., документальный, биография, кинематограф, SatRip]

Статистика раздачи
Размер:  636 MB   |    Зарегистрирован:  8 месяцев   |    Скачан:  3 раза

Полного источника не было: 5 месяцев 8 дней

Сидов:  0  |  0 KB/s  ]   Личеров:  0  |  0 KB/s  ]

* - сиды/пиры с внешних источников

   
 
Автор Сообщение

ARI71 Пол:Муж

09-Апр-2016 12:48

Леонид Быков (Встречная полоса)


Год выпуска: 2013
Жанр: документальный, биография, кинематограф
Страна: Украина 07 Продакшн
Режиссер: Ярослав Гэляс
В ролях: Иван Гаврилюк, Евгения Симонова, Ада Роговцева, Владимир Талашко, Раиса Недашковская
Сюжет фильма:
Леониду Быкову 12 декабря 2013 года могло исполниться восемьдесят пять. Но дожил он только до пятидесяти. Он погиб трагически - его машина выехала на встречную полосу. Многие годы шел спор о том, было ли это случайностью. Леонид Быков выглядел оптимистом, но он был закрытым и одиноким человеком. Вся жизнь его была движением по встречной полосе. Он работал на киностудии Довженко в то время, когда в истории украинского кино был расцвет застоя. Лучшие его фильмы снимались с огромным трудом – под гнетом строжайшей цензуры. Но даже в этих условиях он сумел снять кино, которое стало культовым. Фильм "В бой идут одни старики" - стал вершиной творчества Леонида Быкова. Что могло бы быть дальше – если бы он выжил? "Не хочу жить, не вижу смысла", - писал Быков за три года до аварии. Не может ли быть так, что он не хотел жить, потому что боялся спуска?

Леони́д Фёдорович Бы́ков (укр. Леонід Федорович Биков, 12 декабря 1928 — 11 апреля 1979) — советский актёр, кинорежиссёр и сценарист. Заслуженный артист РСФСР (1965). Народный артист УССР (1974)

Качество видео: SatRip

Продолжительность: 00:44:44
Формат: AVI
Видео: DivX 5, 704x384, ~1851 kbps
Аудио: русский, (оригинал), MP3 2.0, ~128.00 kbps

Код:

Общее
Полное имя : D:\Leonid.Bykov.Vstrechnaja.polosa.2013.DivX.SATRip.avi
Формат : AVI
Формат/Информация : Audio Video Interleave
Размер файла : 636 Мбайт
Продолжительность : 44 м.
Общий поток : 1988 Кбит/сек
Библиотека кодирования : Boilsoft AVI tool build 1/release

Видео
Идентификатор : 0
Формат : MPEG-4 Visual
Параметр BVOP формата : 1
Параметр QPel формата : Нет
Параметр GMC формата : Без точки перехода
Параметр матрицы формата : Default (H.263)
Режим смешивания : Сжатый битовый поток
Идентификатор кодека : DX50
Идентификатор кодека/Подсказка : DivX 5
Продолжительность : 44 м.
Битрейт : 1851 Кбит/сек
Ширина : 704 пикселя
Высота : 384 пикселя
Соотношение сторон : 1,85:1
Частота кадров : 25,000 кадров/сек
Цветовое пространство : YUV
Субдискретизация насыщенности : 4:2:0
Битовая глубина : 8 бит
Тип развёртки : Прогрессивная
Метод сжатия : С потерями
Бит/(Пиксели*Кадры) : 0.274
Размер потока : 592 Мбайт (93%)
Библиотека кодирования : DivX 6.8.5 (UTC 2009-08-20)

Аудио
Идентификатор : 1
Формат : MPEG Audio
Версия формата : Version 1
Профиль формата : Layer 3
Режим : Joint stereo
Расширение режима : MS Stereo
Идентификатор кодека : 55
Идентификатор кодека/Подсказка : MP3
Продолжительность : 44 м.
Вид битрейта : Постоянный
Битрейт : 128 Кбит/сек
Каналы : 2 канала
Частота : 48,0 КГц
Метод сжатия : С потерями
Размер потока : 41,0 Мбайт (6%)
Выравнивание : Разделение по промежуткам
Продолжительность промежутка : 40 мс. (1,00 видеокадр)
Время предзагрузки промежутка : 500 мс.
Релиз группы:

picpicpicpicpic
Для увеличения картинки щелкните мышкой по превью

Этот торрент недоступен для скачивания без регистрации, однако доступен по публичной magnet-ссылке (источники с публичных трекеров). Перед использованием ссылки прочтите, пожалуйста Пользовательское соглашение, а также как можно дольше оставайтесь на раздаче! Для того, чтобы скачать сам торрент-файл (который видит больше источников), а также для того, чтобы поблагодарить релизера, вам необходимо зарегистрироваться. Если регистрироваться лень - вы можете также попробовать скачать релиз по нашим партнерским ссылкам ниже.

[underverse.su].t65027.torrent
Трекер: Зарегистрирован   [ 09.04.2016 12:48 ]  

Статус: проверено (by makkol at 09.04.2016 13:49)
Поблагодарили: пока никто не поблагодарил...
Тип торрента: публичный - доступные источники с открытых трекеров: 
Размер: 636 MB (занимает 0,14 DVDR, для записи нужно 1 болванка DVDR/RW)
 
 
Похожие темы
Форум Тема Автор Торрент Отв. Посл. сооб.
Личности Леонид Быков. Улыбка маэстро (Фуад Шабанов) [2008 г., документальный, биография, искусство, IPTVRip] ARI71
5 | 0

0 | 395

0

13.08.2016 16:07


Яндекс.Метрика powered by Sphinx


В Н И М А Н И Е
Сайт не распространяет и не хранит электронные версии произведений, а лишь бесплатно и без коммерческой выгоды (не требуя взамен платы,
SMS и т.д.) предоставляет доступ к создаваемому пользователями каталогу ссылок на торрент-файлы, которые содержат только списки хеш-сумм.
Убедительная просьба с жалобами обращаться напрямую к пользователю, разместившему торрент файл.

Вверх