Loading...
Error

Непридуманные истории футбола [2013 г., документальный, биография, история, футбол, TVRip]

Статистика раздачи
Размер:  3,07 GB   |    Зарегистрирован:  7 месяцев   |    Скачан:  0 раз

Полного источника не было: 7 месяцев

Сидов:  0  |  0 KB/s  ]   Личеров:  0  |  0 KB/s  ]

* - сиды/пиры с внешних источников

   
 
Автор Сообщение

ARI71 Пол:Муж

07-Апр-2016 15:33

Непридуманные истории футбола


Год выпуска: 2013
Жанр: документальный, биография, история, футбол
Страна: Украина , Россия
Студия: SK Production, ООО "Квартал-Инвест"
Режиссер: Валерий Коновалов
Сюжет фильма:
Документальный сериал "Непридуманные истории футбола" - расскажет нам о выдающихся личностях, которые внесли свой значительный вклад в историю мирового футбола.

1. Валерий Лобановский (1 часть)
2. Валерий Лобановский (2 часть)
3. Диего Марадонна (1 часть)
4. Диего Марадонна (2 часть)
5. Лев Яшин
6. Пеле
7. Олег Блохин

Качество видео: TVRip

Продолжительность: 7 х ~00:26:00
Формат: AVI
Видео: XviD, 704x400, ~1801 kbps
Аудио: русский, (оригинал), MP3 2.0, ~128.00 kbps
(тех. данные всех серий идентичны)

Код:

Общее
Полное имя : D:\Непридуманные истории футбола\1 серия.avi
Формат : AVI
Формат/Информация : Audio Video Interleave
Размер файла : 366 Мбайт
Продолжительность : 26 м.
Общий поток : 1938 Кбит/сек
Библиотека кодирования : VirtualDub build 32842/release

Видео
Идентификатор : 0
Формат : MPEG-4 Visual
Профиль формата : Advanced Simple@L5
Параметр BVOP формата : 2
Параметр QPel формата : Нет
Параметр GMC формата : Без точки перехода
Параметр матрицы формата : Default (H.263)
Режим смешивания : Сжатый битовый поток
Идентификатор кодека : XVID
Идентификатор кодека/Подсказка : XviD
Продолжительность : 26 м.
Битрейт : 1801 Кбит/сек
Ширина : 704 пикселя
Высота : 400 пикселей
Соотношение сторон : 16:9
Частота кадров : 25,000 кадров/сек
Цветовое пространство : YUV
Субдискретизация насыщенности : 4:2:0
Битовая глубина : 8 бит
Тип развёртки : Прогрессивная
Метод сжатия : С потерями
Бит/(Пиксели*Кадры) : 0.256
Размер потока : 340 Мбайт (93%)
Библиотека кодирования : XviD 64

Аудио
Идентификатор : 1
Формат : MPEG Audio
Версия формата : Version 1
Профиль формата : Layer 3
Режим : Joint stereo
Расширение режима : MS Stereo
Идентификатор кодека : 55
Идентификатор кодека/Подсказка : MP3
Продолжительность : 26 м.
Вид битрейта : Постоянный
Битрейт : 128 Кбит/сек
Каналы : 2 канала
Частота : 48,0 КГц
Метод сжатия : С потерями
Задержка видео : 6 мс.
Размер потока : 24,1 Мбайт (7%)
Выравнивание : Разделение по промежуткам
Продолжительность промежутка : 40 мс. (1,00 видеокадр)
Время предзагрузки промежутка : 500 мс.
picpicpicpicpic
Для увеличения картинки щелкните мышкой по превью

Этот торрент недоступен для скачивания без регистрации, однако доступен по публичной magnet-ссылке (источники с публичных трекеров). Перед использованием ссылки прочтите, пожалуйста Пользовательское соглашение, а также как можно дольше оставайтесь на раздаче! Для того, чтобы скачать сам торрент-файл (который видит больше источников), а также для того, чтобы поблагодарить релизера, вам необходимо зарегистрироваться. Если регистрироваться лень - вы можете также попробовать скачать релиз по нашим партнерским ссылкам ниже.

[underverse.su].t64945.torrent
Трекер: Зарегистрирован   [ 07.04.2016 15:33 ]  

Статус: проверено (by makkol at 07.04.2016 15:46)
Поблагодарили: пока никто не поблагодарил...
Тип торрента: публичный - доступные источники с открытых трекеров: 
Размер: 3,07 GB (занимает 0,7 DVDR, для записи нужно 1 болванка DVDR/RW)
 
 
Похожие темы
Форум Тема Автор Торрент Отв. Посл. сооб.
Архив Непридуманное убийство / 1-4 серии из 4 (2009) DVDRip (Виктория Держицкая) [2009 г., Детектив, криминал, DVDRip] Zver-Mix
0 | 0

1 | 1394

0

30.08.2010 00:06


Яндекс.Метрика powered by Sphinx


В Н И М А Н И Е
Сайт не распространяет и не хранит электронные версии произведений, а лишь бесплатно и без коммерческой выгоды (не требуя взамен платы,
SMS и т.д.) предоставляет доступ к создаваемому пользователями каталогу ссылок на торрент-файлы, которые содержат только списки хеш-сумм.
Убедительная просьба с жалобами обращаться напрямую к пользователю, разместившему торрент файл.

Вверх