Loading...
Error

Охота на работу / Get a Job (Дилан Кидд) [2016 г., комедия, WEB-DLRip] MVO

Статистика раздачи
Размер:  1,37 GB   |    Зарегистрирован:  8 месяцев   |    Скачан:  14 раз
Сидов:  2  |  0 KB/s  ]   Личеров:  0  |  0 KB/s  ]

* - сиды/пиры с внешних источников

   
 
Автор Сообщение

makkol Пол:Муж

06-Апр-2016 15:13

Охота на работу / Get a Job


Год выпуска: 2016
Жанр: комедия
Производство: США [CBS Films, Double Feature Films]
Режиссер: Дилан Кидд
В ролях: Элисон Бри, Анна Кендрик, Брайан Крэнстон, Майлз Теллер, Николас Браун, Марша Гей Харден, Кристофер Минц-Плассе, Джон К. МакГинли, Хорхе Гарсиа, Рави Патель
Сюжет фильма:
Сюжет ленты строится вокруг выпускника колледжа и его друзей. Молодые специалисты стоят на распутье, чем заниматься, зачем и тому ли они учились. В стране Экономический кризис, а молодежь хочет отрываться.

  • Мировая премьера: 25 марта 2016


Качество видео: WEB-DLRip

Продолжительность: 01:22:45
Формат: AVI
Видео: XviD, 720x400 (16:9), 23.976 fps, 1971 kbps
Аудио: русский, профессиональный многоголосый закадровый, AC3 2.0, 48 kHz, 384 kbps

Код:

Формат                                   : AVI
Формат/Информация                        : Audio Video Interleave
Размер файла                             : 1,37 Гбайт
Продолжительность                        : 1 ч. 22 м.
Общий поток                              : 2364 Кбит/сек
Программа кодирования                    : VirtualDubMod 1.5.10.3 |(build 2550/release)

Видео
Идентификатор                            : 0
Формат                                   : MPEG-4 Visual
Профиль формата                          : Advanced Simple@L5
Параметр BVOP формата                    : 2
Параметр QPel формата                    : Нет
Параметр GMC формата                     : Без точки перехода
Параметр матрицы формата                 : Default (MPEG)
Идентификатор кодека                     : XVID
Идентификатор кодека/Подсказка           : XviD
Продолжительность                        : 1 ч. 22 м.
Битрейт                                  : 1971 Кбит/сек
Ширина                                   : 720 пикселей
Высота                                   : 400 пикселей
Соотношение сторон                       : 16:9
Частота кадров                           : 23,976 (24000/1001) кадра/сек
Цветовое пространство                    : YUV
Субдискретизация насыщенности            : 4:2:0
Битовая глубина                          : 8 бит
Тип развёртки                            : Прогрессивная
Метод сжатия                             : С потерями
Бит/(Пиксели*Кадры)                      : 0.285
Размер потока                            : 1,14 Гбайт (83%)
Библиотека кодирования                   : XviD 1.2.1 (UTC 2008-12-04)

Аудио
Идентификатор                            : 1
Формат                                   : AC-3
Формат/Информация                        : Audio Coding 3
Расширение режима                        : CM (complete main)
Параметр Endianness формата              : Big
Идентификатор кодека                     : 2000
Продолжительность                        : 1 ч. 22 м.
Вид битрейта                             : Постоянный
Битрейт                                  : 384 Кбит/сек
Каналы                                   : 2 канала
Расположение каналов                     : Front: L R
Частота                                  : 48,0 КГц
Частота кадров                           : 31,250 кадров/сек (1536 spf)
Метод сжатия                             : С потерями
Размер потока                            : 227 Мбайт (16%)
Выравнивание                             : Разделение по промежуткам
Продолжительность промежутка             : 42  мс. (1,00 видеокадр)
Время предзагрузки промежутка            : 500  мс.
Paradox & Omskbird records
Перевод: Никита Коваль
Озвучивание: Владимир Рыбальченко, Павел Ярощик, Алексей Гнеушев, Алена Соколова
Звукорежиссер: Павел Квентов
Релиз без рекламы


picpicpicpicpic
Для увеличения картинки щелкните мышкой по превью

Этот торрент недоступен для скачивания без регистрации, однако доступен по публичной magnet-ссылке (источники с публичных трекеров). Перед использованием ссылки прочтите, пожалуйста Пользовательское соглашение, а также как можно дольше оставайтесь на раздаче! Для того, чтобы скачать сам торрент-файл (который видит больше источников), а также для того, чтобы поблагодарить релизера, вам необходимо зарегистрироваться. Если регистрироваться лень - вы можете также попробовать скачать релиз по нашим партнерским ссылкам ниже.

[underverse.su].t64922.torrent
Трекер: Зарегистрирован   [ 06.04.2016 15:13 ]  

Статус: проверено (by makkol at 09.04.2016 23:34)
Поблагодарили: пока никто не поблагодарил...
Тип торрента: публичный - доступные источники с открытых трекеров: 
Размер: 1,37 GB (занимает 0,31 DVDR, для записи нужно 1 болванка DVDR/RW)
 
 
Похожие темы
Форум Тема Автор Торрент Отв. Посл. сооб.
Зарубежное кино [HDDVDRip / BDRip / WEB-DL / HDTV 1080/720р] Охота на работу / Get a Job (Дилан Кидд) [2016 г., комедия, WEB-DL 1080p] MVO + Original makkol
4 | 0

0 | 454

10

06.04.2016 15:21

Зарубежное кино [HDDVDRip / BDRip / WEB-DL / HDTV 1080/720р] Охота на работу / Get a Job (Дилан Кидд) [2016 г., комедия, WEB-DL 720p] MVO + Original makkol
20 | 0

0 | 977

5

06.04.2016 15:34


Яндекс.Метрика powered by Sphinx


В Н И М А Н И Е
Сайт не распространяет и не хранит электронные версии произведений, а лишь бесплатно и без коммерческой выгоды (не требуя взамен платы,
SMS и т.д.) предоставляет доступ к создаваемому пользователями каталогу ссылок на торрент-файлы, которые содержат только списки хеш-сумм.
Убедительная просьба с жалобами обращаться напрямую к пользователю, разместившему торрент файл.

Вверх