Loading...
Error

Водный мир (1-15 серий из 15) [2013-2015 г., документальный, познавательный, фауна, ихтиология, TVRip]

Статистика раздачи
Размер:  5,52 GB   |    Зарегистрирован:  8 месяцев   |    Скачан:  4 раза

Полного источника не было: 6 месяцев

Сидов:  0  |  0 KB/s  ]   Личеров:  0  |  0 KB/s  ]

* - сиды/пиры с внешних источников

   
 
Автор Сообщение

ARI71 Пол:Муж

05-Апр-2016 19:36

Водный мир (1-15 серий из 15)


Год выпуска: 2013-2015
Жанр: документальный, познавательный, фауна, ихтиология
Страна: Россия
Студия: Телеканал "Стрим"
Сюжет фильма:
Цикл поможет зрителю научиться "читать" водоемы: реку, озеро, пруд, карьер, водохранилище и разобраться, кого здесь можно поймать и в какое время года. Программа основана на уникальных подводных съемках. Автор – профессиональный ихтиолог и подводный оператор.
Качество видео: TVRip

Продолжительность: 15 х ~00:25:50
Формат: AVI
Видео: XviD, 640x360, ~1900 kbps
Аудио: русский, (оригинал), MP3 2.0, ~128.00 kbps
(тех. данные всех серий идентичны)
1. Бессточное озеро Балхаш
2. Водохранилища
3. Горные реки
4. Дельта Волги
5. Карьеры
6. Крупные реки
7. Малые реки
8. Ночь
9. Озёра и реки Псковской области
10. Осень
11. Плато путорана
12. Проточные Озёра
13. Равнинные реки
14. Средние реки
15. Чёрное море

Код:

Общее
Полное имя : D:\Водный мир\Бессточное озеро Балхаш.avi
Формат : AVI
Формат/Информация : Audio Video Interleave
Размер файла : 377 Мбайт
Продолжительность : 25 м.
Общий поток : 2038 Кбит/сек
Программа кодирования : VirtualDubMod 1.5.10.3 | www.virtualdub-fr.org || (build 2550/release)
Библиотека кодирования : VirtualDubMod build 2550/release

Видео
Идентификатор : 0
Формат : MPEG-4 Visual
Профиль формата : Advanced Simple@L5
Параметр BVOP формата : 1
Параметр QPel формата : Нет
Параметр GMC формата : Без точки перехода
Параметр матрицы формата : Default (MPEG)
Идентификатор кодека : XVID
Идентификатор кодека/Подсказка : XviD
Продолжительность : 25 м.
Битрейт : 1900 Кбит/сек
Ширина : 640 пикселей
Высота : 360 пикселей
Соотношение сторон : 16:9
Частота кадров : 25,000 кадров/сек
Цветовое пространство : YUV
Субдискретизация насыщенности : 4:2:0
Битовая глубина : 8 бит
Тип развёртки : Прогрессивная
Метод сжатия : С потерями
Бит/(Пиксели*Кадры) : 0.330
Размер потока : 352 Мбайт (93%)
Библиотека кодирования : XviD 1.2.1 (UTC 2008-12-04)

Аудио
Идентификатор : 1
Формат : MPEG Audio
Версия формата : Version 1
Профиль формата : Layer 3
Идентификатор кодека : 55
Идентификатор кодека/Подсказка : MP3
Продолжительность : 25 м.
Вид битрейта : Постоянный
Битрейт : 128 Кбит/сек
Каналы : 2 канала
Частота : 48,0 КГц
Метод сжатия : С потерями
Размер потока : 23,7 Мбайт (6%)
Выравнивание : Соединение по промежуткам
Продолжительность промежутка : 40 мс. (1,00 видеокадр)
Время предзагрузки промежутка : 504 мс.
Библиотека кодирования : LAME3.99r
Настройки программы : -m s -V 4 -q 2 -lowpass 17 -b 128
picpicpicpicpic
Для увеличения картинки щелкните мышкой по превью

Этот торрент недоступен для скачивания без регистрации, однако доступен по публичной magnet-ссылке (источники с публичных трекеров). Перед использованием ссылки прочтите, пожалуйста Пользовательское соглашение, а также как можно дольше оставайтесь на раздаче! Для того, чтобы скачать сам торрент-файл (который видит больше источников), а также для того, чтобы поблагодарить релизера, вам необходимо зарегистрироваться. Если регистрироваться лень - вы можете также попробовать скачать релиз по нашим партнерским ссылкам ниже.

[underverse.su].t64907.torrent
Трекер: Зарегистрирован   [ 05.04.2016 19:36 ]  

Статус: проверено (by makkol at 05.04.2016 22:22)
Поблагодарили: 1 человек
Тип торрента: публичный - доступные источники с открытых трекеров: 
Размер: 5,52 GB (занимает 1,26 DVDR, для записи нужно 2 болванки DVDR/RW)
 
 
Похожие темы
Форум Тема Автор Торрент Отв. Посл. сооб.
Зарубежное кино [DVDRip, Low-Res HDRip, и т.д.] Водный мир / Waterworld (Кевин Рейнольдс / Kevin Reynolds) [1995 г., фантастика, боевик, приключения, HDRip] MVO Паукан
161 | 6

0 | 920

17

08.07.2013 10:15

Архив Водный Мир / Waterworld (Кевин Рейнолдс /Kevin Reynolds) [1995 г., фантастика, боевик, приключения, DVDRip] Saggitarius
0 | 0

4 | 905

2

05.11.2011 14:44

ARI71 Пол:Муж

05-Апр-2016 19:38

Сериал не о рыбалке, но тоже очень интересен и познавателен! Приятного просмотра!

Яндекс.Метрика powered by Sphinx


В Н И М А Н И Е
Сайт не распространяет и не хранит электронные версии произведений, а лишь бесплатно и без коммерческой выгоды (не требуя взамен платы,
SMS и т.д.) предоставляет доступ к создаваемому пользователями каталогу ссылок на торрент-файлы, которые содержат только списки хеш-сумм.
Убедительная просьба с жалобами обращаться напрямую к пользователю, разместившему торрент файл.

Вверх