Loading...
Error

После смерти / AfterDeath (Гез Медингер, Робин Шмидт) [2015 г., ужасы, триллер, детектив, HDTVRip] VO + Original

Статистика раздачи
Размер:  1,45 GB   |    Зарегистрирован:  8 месяцев   |    Скачан:  16 раз
Сидов:  2  |  17 KB/s  ]   Личеров:  0  |  0 KB/s  ]

* - сиды/пиры с внешних источников

   
 
Автор Сообщение

makkol Пол:Муж

05-Апр-2016 15:24

После смерти / AfterDeath


Год выпуска: 2015
Жанр: ужасы, триллер, детектив
Производство: Великобритания [Acheron Films, HBO Polska, Vituhmin Productions]
Режиссер: Гез Медингер, Робин Шмидт
В ролях: Миранда Рэйсон, Сэм Кили, Даниэла Картес, Эларика Галлахер, Лорна Никсон Браун
Сюжет фильма:
Пятеро молодых людей просыпаются на пляже и понимают, что они мертвы. Они находят заброшенный дом на пляже, вскоре понимая, что вечная ночь и приступы боли — это и есть ад. Отбиваясь от неких демонических существ, они вспоминают разрушение ночного клуба, которое привело их сюда, и начинают видеть надежду на второй шанс в двух загадочных картинах, висящих в доме.

  • Мировая премьера: 28 августа 2015


Качество видео: HDTVRip

Продолжительность: 01:28:47
Формат: AVI
Видео: XviD, 720x304 (2.35:1), 25.000 fps, 1944 kbps
Аудио #1: русский, любительский одноголосый закадровый (МЕГАПЫХАРЬ), AC3 2.0, 48 kHz, 192 kbps
Аудио #2: английский, оригинал, AC3 2.0, 48 kHz, 192 kbps

Код:

Формат                                   : AVI
Формат/Информация                        : Audio Video Interleave
Размер файла                             : 1,45 Гбайт
Продолжительность                        : 1 ч. 28 м.
Общий поток                              : 2342 Кбит/сек
Программа кодирования                    : VirtualDubMod 1.5.10.3 | (build 2550/release)
Библиотека кодирования                   : VirtualDubMod build 2550/release

Видео
Идентификатор                            : 0
Формат                                   : MPEG-4 Visual
Профиль формата                          : Advanced Simple@L5
Параметр BVOP формата                    : 2
Параметр QPel формата                    : Нет
Параметр GMC формата                     : Без точки перехода
Параметр матрицы формата                 : Default (H.263)
Идентификатор кодека                     : XVID
Идентификатор кодека/Подсказка           : XviD
Продолжительность                        : 1 ч. 28 м.
Битрейт                                  : 1944 Кбит/сек
Ширина                                   : 720 пикселей
Высота                                   : 304 пикселя
Соотношение сторон                       : 2,35:1
Частота кадров                           : 25,000 кадров/сек
Цветовое пространство                    : YUV
Субдискретизация насыщенности            : 4:2:0
Битовая глубина                          : 8 бит
Тип развёртки                            : Прогрессивная
Метод сжатия                             : С потерями
Бит/(Пиксели*Кадры)                      : 0.355
Размер потока                            : 1,21 Гбайт (83%)
Библиотека кодирования                   : XviD 73

Аудио #1
Идентификатор                            : 1
Формат                                   : AC-3
Формат/Информация                        : Audio Coding 3
Расширение режима                        : CM (complete main)
Параметр Endianness формата              : Big
Идентификатор кодека                     : 2000
Продолжительность                        : 1 ч. 28 м.
Вид битрейта                             : Постоянный
Битрейт                                  : 192 Кбит/сек
Каналы                                   : 2 канала
Расположение каналов                     : Front: L R
Частота                                  : 48,0 КГц
Метод сжатия                             : С потерями
Размер потока                            : 122 Мбайт (8%)
Выравнивание                             : Разделение по промежуткам
Продолжительность промежутка             : 40  мс. (1,00 видеокадр)
Время предзагрузки промежутка            : 500  мс.

Аудио #2
Идентификатор                            : 2
Формат                                   : AC-3
Формат/Информация                        : Audio Coding 3
Расширение режима                        : CM (complete main)
Параметр Endianness формата              : Big
Идентификатор кодека                     : 2000
Продолжительность                        : 1 ч. 28 м.
Вид битрейта                             : Постоянный
Битрейт                                  : 192 Кбит/сек
Каналы                                   : 2 канала
Расположение каналов                     : Front: L R
Частота                                  : 48,0 КГц
Метод сжатия                             : С потерями
Размер потока                            : 122 Мбайт (8%)
Выравнивание                             : Разделение по промежуткам
Продолжительность промежутка             : 40  мс. (1,00 видеокадр)
Время предзагрузки промежутка            : 500  мс.
picpicpicpicpic
Для увеличения картинки щелкните мышкой по превью

Этот торрент недоступен для скачивания без регистрации, однако доступен по публичной magnet-ссылке (источники с публичных трекеров). Перед использованием ссылки прочтите, пожалуйста Пользовательское соглашение, а также как можно дольше оставайтесь на раздаче! Для того, чтобы скачать сам торрент-файл (который видит больше источников), а также для того, чтобы поблагодарить релизера, вам необходимо зарегистрироваться. Если регистрироваться лень - вы можете также попробовать скачать релиз по нашим партнерским ссылкам ниже.

[underverse.su].t64892.torrent
Трекер: Зарегистрирован   [ 05.04.2016 15:24 ]  

Статус: проверено (by makkol at 06.04.2016 16:04)
Поблагодарили: пока никто не поблагодарил...
Тип торрента: публичный - доступные источники с открытых трекеров: 
Размер: 1,45 GB (занимает 1/3 DVDR, для записи нужно 1 болванка DVDR/RW)
 
 
Похожие темы
Форум Тема Автор Торрент Отв. Посл. сооб.
Зарубежное кино [DVDRip, Low-Res HDRip, и т.д.] После смерти / AfterDeath (Гез Медингер, Робин Шмидт) [2015 г., ужасы, триллер, детектив, HDTVRip] MVO + Original makkol
23 | 0

0 | 337

15

20.07.2016 14:42


Яндекс.Метрика powered by Sphinx


В Н И М А Н И Е
Сайт не распространяет и не хранит электронные версии произведений, а лишь бесплатно и без коммерческой выгоды (не требуя взамен платы,
SMS и т.д.) предоставляет доступ к создаваемому пользователями каталогу ссылок на торрент-файлы, которые содержат только списки хеш-сумм.
Убедительная просьба с жалобами обращаться напрямую к пользователю, разместившему торрент файл.

Вверх