Loading...
Error

Каждая секретная вещь / Every Secret Thing (Эми Берг) [2014 г., триллер, драма, криминал, детектив, WEB-DLRip] VO

Статистика раздачи
Размер:  1,47 GB   |    Зарегистрирован:  8 месяцев   |    Скачан:  2 раза

Полного источника не было: 7 месяцев

Сидов:  0  |  0 KB/s  ]   Личеров:  0  |  0 KB/s  ]

* - сиды/пиры с внешних источников

   
 
Автор Сообщение

makkol Пол:Муж

05-Апр-2016 15:04

Каждая секретная вещь / Every Secret Thing


Год выпуска: 2014
Жанр: триллер, драма, криминал, детектив
Производство: США [Hyde Park Entertainment, Likely Story, Merced Media Partners, Palm-Star Entertainment]
Режиссер: Эми Берг
В ролях: Дайан Лэйн, Элизабет Бэнкс, Дакота Фаннинг, Даниэль МакДональд, Нэйт Паркер, Коммон, Колин Доннелл, Эми Трибби, Билл Сейдж, Рене Голдсберри, Джейден Майкл, Себастьян Бикон, Клер Фоли, Пейдж Кинг, Хулито МакКаллум, Тони Патано, Джейсон Пендерграфт, Сара Соколович
Сюжет фильма:
История двух одиннадцатилетних девочек, обвиненных в убийстве и вышедших на свободу только после того, как им обеим исполнилось по восемнадцать лет.

  • Мировая премьера: 20 апреля 2014


Качество видео: WEB-DLRip

Продолжительность: 01:32:24
Формат: AVI
Видео: XviD, 720x400 (16:9), 23.976 fps, 1879 kbps
Аудио: русский, любительский одноголосый закадровый (Lord32x Studio), AC3 5.1, 48 kHz, 384 kbps

Код:

Формат                                   : AVI
Формат/Информация                        : Audio Video Interleave
Размер файла                             : 1,47 Гбайт
Продолжительность                        : 1 ч. 32 м.
Общий поток                              : 2273 Кбит/сек
Программа кодирования                    : VirtualDubMod 1.5.10.3 | www.virtualdub-fr.org || (build 2550/release)
Библиотека кодирования                   : VirtualDubMod build 2550/release

Видео
Идентификатор                            : 0
Формат                                   : MPEG-4 Visual
Профиль формата                          : Advanced Simple@L5
Параметр BVOP формата                    : 1
Параметр QPel формата                    : Нет
Параметр GMC формата                     : Без точки перехода
Параметр матрицы формата                 : Default (H.263)
Идентификатор кодека                     : XVID
Идентификатор кодека/Подсказка           : XviD
Продолжительность                        : 1 ч. 32 м.
Битрейт                                  : 1879 Кбит/сек
Ширина                                   : 720 пикселей
Высота                                   : 400 пикселей
Соотношение сторон                       : 16:9
Частота кадров                           : 23,976 (23976/1000) кадра/сек
Цветовое пространство                    : YUV
Субдискретизация насыщенности            : 4:2:0
Битовая глубина                          : 8 бит
Тип развёртки                            : Прогрессивная
Метод сжатия                             : С потерями
Бит/(Пиксели*Кадры)                      : 0.272
Размер потока                            : 1,21 Гбайт (83%)
Библиотека кодирования                   : XviD 1.2.1 (UTC 2008-12-04)

Аудио
Идентификатор                            : 1
Формат                                   : AC-3
Формат/Информация                        : Audio Coding 3
Расширение режима                        : CM (complete main)
Параметр Endianness формата              : Big
Идентификатор кодека                     : 2000
Продолжительность                        : 1 ч. 32 м.
Вид битрейта                             : Постоянный
Битрейт                                  : 384 Кбит/сек
Каналы                                   : 6 каналов
Расположение каналов                     : Front: L C R, Side: L R, LFE
Частота                                  : 48,0 КГц
Частота кадров                           : 31,250 кадров/сек (1536 spf)
Метод сжатия                             : С потерями
Размер потока                            : 254 Мбайт (17%)
Выравнивание                             : Разделение по промежуткам
Продолжительность промежутка             : 42  мс. (1,00 видеокадр)
Время предзагрузки промежутка            : 500  мс.
Релиз:

picpicpicpicpic
Для увеличения картинки щелкните мышкой по превью

Этот торрент недоступен для скачивания без регистрации, однако доступен по публичной magnet-ссылке (источники с публичных трекеров). Перед использованием ссылки прочтите, пожалуйста Пользовательское соглашение, а также как можно дольше оставайтесь на раздаче! Для того, чтобы скачать сам торрент-файл (который видит больше источников), а также для того, чтобы поблагодарить релизера, вам необходимо зарегистрироваться. Если регистрироваться лень - вы можете также попробовать скачать релиз по нашим партнерским ссылкам ниже.

[underverse.su].t64889.torrent
Трекер: Зарегистрирован   [ 05.04.2016 15:04 ]  

Статус: проверено (by makkol at 06.04.2016 16:02)
Поблагодарили: пока никто не поблагодарил...
Тип торрента: публичный - доступные источники с открытых трекеров: 
Размер: 1,47 GB (занимает 0,34 DVDR, для записи нужно 1 болванка DVDR/RW)
 
 
Похожие темы
Форум Тема Автор Торрент Отв. Посл. сооб.
Зарубежное кино [HDDVDRip / BDRip / WEB-DL / HDTV 1080/720р] Каждая секретная вещь / Every Secret Thing (Эми Берг) [2014 г., триллер, драма, криминал, детектив, WEB-DL 720p] VO + Original makkol
4 | 0

0 | 507

6

05.04.2016 15:10


Яндекс.Метрика powered by Sphinx


В Н И М А Н И Е
Сайт не распространяет и не хранит электронные версии произведений, а лишь бесплатно и без коммерческой выгоды (не требуя взамен платы,
SMS и т.д.) предоставляет доступ к создаваемому пользователями каталогу ссылок на торрент-файлы, которые содержат только списки хеш-сумм.
Убедительная просьба с жалобами обращаться напрямую к пользователю, разместившему торрент файл.

Вверх