Loading...
Error

Движущийся лес / A Floresta Que Se Move (Винисиус Коимбра) [2015 г., триллер, драма, DVDRip] DVO

Статистика раздачи
Размер:  1,46 GB   |    Зарегистрирован:  7 месяцев   |    Скачан:  8 раз

Полного источника не было: 2 месяца 29 дней

Сидов:  0  |  0 KB/s  ]   Личеров:  0  |  0 KB/s  ]

* - сиды/пиры с внешних источников

   
 
Автор Сообщение

makkol Пол:Муж

05-Апр-2016 14:40

Движущийся лес / A Floresta Que Se Move


Год выпуска: 2015
Жанр: триллер, драма
Производство: Бразилия [E.H. Filmes, Globo Filmes, Globo Filmes]
Режиссер: Винисиус Коимбра
В ролях: Габриэл Брага Нунес, Ана Паула Арозио, Нелсон Шавьер, Анжело Антонио, Фернанду Алвес Пинто, Мириам Фриланд, Руй Рикарду Диас, Татсу Карвалью, Режина Ременсиус, Жулиана Карнейру да Кунья, Эмилиану Кейроз
Сюжет фильма:
Элиас — успешный руководитель, который работает в одном из самых лучших частных банков Бразилии. У него есть все возможности для хорошего профессионального роста, которые ему дает Эйтор, президент банка. По возвращении из командировки и придя в банк, Элиас сталкивается с таинственной женщиной, которая приветствует его по имени и говорит, что в один день он станет вице-президентом банка, а на следующий — уже президентом. Под большим впечатлением, Элиас рассказывает эту историю своей жене Кларе. Клара очень воодушевлена предсказанием незнакомки и предлагает пригласить Эйтора на ужин. С этого момента происходит серия убийств, совершенных парой, которая оставляет за собой кровавый след на пути к власти, которая становится мучителем и жертвой их собственных судеб…

  • Мировая премьера: 2 сентября 2015


Качество видео: DVDRip

Продолжительность: 01:38:48
Формат: AVI
Видео: XviD, 720x400 (16:9), 29.970 fps, 1910 kbps
Аудио: русский, любительский двухголосый закадровый (Avebrasil), AC3 2.0, 48 kHz, 192 kbps

Код:

Format : AVI
Format/Info : Audio Video Interleave
File size : 1.46 GiB
Duration : 1h 38mn
Overall bit rate : 2 114 Kbps
Writing application : VirtualDubMod 1.5.10.2 (build 2540/release)
Writing library : VirtualDubMod build 2540/release

Video
ID : 0
Format : MPEG-4 Visual
Format profile : Advanced Simple@L5
Format settings, BVOP : 2
Format settings, QPel : No
Format settings, GMC : No warppoints
Format settings, Matrix : Default (MPEG)
Codec ID : XVID
Codec ID/Hint : XviD
Duration : 1h 38mn
Bit rate : 1 910 Kbps
Width : 720 pixels
Height : 400 pixels
Display aspect ratio : 16:9
Frame rate : 29.970 (30000/1001) fps
Color space : YUV
Chroma subsampling : 4:2:0
Bit depth : 8 bits
Scan type : Progressive
Compression mode : Lossy
Bits/(Pixel*Frame) : 0.221
Stream size : 1.32 GiB (90%)
Writing library : XviD 1.2.1 (UTC 2008-12-04)

Audio
ID : 1
Format : AC-3
Format/Info : Audio Coding 3
Mode extension : CM (complete main)
Format settings, Endianness : Big
Codec ID : 2000
Duration : 1h 38mn
Bit rate mode : Constant
Bit rate : 192 Kbps
Channel(s) : 2 channels
Channel positions : Front: L R
Sampling rate : 48.0 KHz
Frame rate : 31.250 fps (1536 spf)
Compression mode : Lossy
Stream size : 136 MiB (9%)
Alignment : Split accross interleaves
Interleave, duration : 33 ms (1.00 video frame)
Interleave, preload duratio : 500 ms
picpicpicpicpic
Для увеличения картинки щелкните мышкой по превью

Этот торрент недоступен для скачивания без регистрации, однако доступен по публичной magnet-ссылке (источники с публичных трекеров). Перед использованием ссылки прочтите, пожалуйста Пользовательское соглашение, а также как можно дольше оставайтесь на раздаче! Для того, чтобы скачать сам торрент-файл (который видит больше источников), а также для того, чтобы поблагодарить релизера, вам необходимо зарегистрироваться. Если регистрироваться лень - вы можете также попробовать скачать релиз по нашим партнерским ссылкам ниже.

[underverse.su].t64886.torrent
Трекер: Зарегистрирован   [ 05.04.2016 14:40 ]  

Статус: проверено (by makkol at 06.04.2016 16:01)
Поблагодарили: 1 человек
Тип торрента: публичный - доступные источники с открытых трекеров: 
Размер: 1,46 GB (занимает 1/3 DVDR, для записи нужно 1 болванка DVDR/RW)
 
 

Яндекс.Метрика powered by Sphinx


В Н И М А Н И Е
Сайт не распространяет и не хранит электронные версии произведений, а лишь бесплатно и без коммерческой выгоды (не требуя взамен платы,
SMS и т.д.) предоставляет доступ к создаваемому пользователями каталогу ссылок на торрент-файлы, которые содержат только списки хеш-сумм.
Убедительная просьба с жалобами обращаться напрямую к пользователю, разместившему торрент файл.

Вверх