Loading...
Error

Кража автомобилей / Stealing Cars (Брэдли Каплан) [2015 г., драма, DVDRip] MVO

Статистика раздачи
Размер:  1,37 GB   |    Зарегистрирован:  8 месяцев   |    Скачан:  34 раза
Сидов:  1  |  0 KB/s  ]   Личеров:  0  |  0 KB/s  ]

* - сиды/пиры с внешних источников

   
 
Автор Сообщение

makkol Пол:Муж

04-Апр-2016 10:42

Кража автомобилей / Stealing Cars


Год выпуска: 2015
Жанр: драма
Производство: США [Leverage Management]
Режиссер: Брэдли Каплан
В ролях: Эмори Коэн, Уильям Х. Мэйси, Джон Легуизамо, Фелисити Хаффмен, Пол Спаркс, Хезер Линд, Майк Эппс, Чэнс Келли, Тарик Троттер, Аль Калдерон
Сюжет фильма:
Когда жизнь Билли Уайта пошла под откос, он ударился в криминал. Парень попался на автомобильной краже и угодил в подростковую колонию, известную как Бернвилльский лагерь для мальчиков. В первый же день Билли испытал на своей шкуре все «прелести» местных порядков и деспотизм тюремных надзирателей, которые любой случайный взгляд принимают как личное оскорбление. Своенравному, свободолюбивому и обладающему живым умом молодому человеку, который так не похож на других заключенных, здесь явно придется тяжело. Но Билли не из тех, кто легко сдается. Он решает установить свои порядки и искоренить произвол тюремщиков. Революционные идеи Уайта находят как своих сторонников, так и ярых противников…

  • Мировая премьера: 13 июня 2015


Качество видео: DVDRip

Продолжительность: 01:41:29
Формат: AVI
Видео: XviD, 720x384 (1.85:1), 23.976 fps, 1665 kbps
Аудио: русский, профессиональный многоголосый закадровый (официальный звук), MP3 2.0, 48 kHz, 256 kbps

Код:

Формат                                   : AVI
Формат/Информация                        : Audio Video Interleave
Размер файла                             : 1,37 Гбайт
Продолжительность                        : 1 ч. 41 м.
Общий поток                              : 1931 Кбит/сек
Программа кодирования                    : VirtualDubMod 1.5.10.3 | www.virtualdub-fr.org || (build 2550/release)

Видео
Идентификатор                            : 0
Формат                                   : MPEG-4 Visual
Профиль формата                          : Advanced Simple@L5
Параметр BVOP формата                    : 2
Параметр QPel формата                    : Нет
Параметр GMC формата                     : Без точки перехода
Параметр матрицы формата                 : Выборочная
Идентификатор кодека                     : XVID
Идентификатор кодека/Подсказка           : XviD
Продолжительность                        : 1 ч. 41 м.
Битрейт                                  : 1665 Кбит/сек
Ширина                                   : 720 пикселей
Высота                                   : 384 пикселя
Соотношение сторон                       : 1,85:1
Частота кадров                           : 23,976 (23976/1000) кадра/сек
Цветовое пространство                    : YUV
Субдискретизация насыщенности            : 4:2:0
Битовая глубина                          : 8 бит
Тип развёртки                            : Прогрессивная
Метод сжатия                             : С потерями
Бит/(Пиксели*Кадры)                      : 0.251
Размер потока                            : 1,18 Гбайт (86%)
Библиотека кодирования                   : XviD 1.2.1 (UTC 2008-12-04)

Аудио
Идентификатор                            : 1
Формат                                   : MPEG Audio
Версия формата                           : Version 1
Профиль формата                          : Layer 3
Режим                                    : Joint stereo
Идентификатор кодека                     : 55
Идентификатор кодека/Подсказка           : MP3
Продолжительность                        : 1 ч. 41 м.
Вид битрейта                             : Постоянный
Битрейт                                  : 256 Кбит/сек
Каналы                                   : 2 канала
Частота                                  : 48,0 КГц
Метод сжатия                             : С потерями
Размер потока                            : 186 Мбайт (13%)
Выравнивание                             : Соединение по промежуткам
Продолжительность промежутка             : 42  мс. (1,00 видеокадр)
Время предзагрузки промежутка            : 504  мс.
Релиз без рекламы


picpicpicpicpic
Для увеличения картинки щелкните мышкой по превью

Этот торрент недоступен для скачивания без регистрации, однако доступен по публичной magnet-ссылке (источники с публичных трекеров). Перед использованием ссылки прочтите, пожалуйста Пользовательское соглашение, а также как можно дольше оставайтесь на раздаче! Для того, чтобы скачать сам торрент-файл (который видит больше источников), а также для того, чтобы поблагодарить релизера, вам необходимо зарегистрироваться. Если регистрироваться лень - вы можете также попробовать скачать релиз по нашим партнерским ссылкам ниже.

[underverse.su].t64860.torrent
Трекер: Зарегистрирован   [ 04.04.2016 10:42 ]  

Статус: проверено (by makkol at 06.04.2016 15:47)
Поблагодарили: 1 человек
Тип торрента: публичный - доступные источники с открытых трекеров: 
Размер: 1,37 GB (занимает 0,31 DVDR, для записи нужно 1 болванка DVDR/RW)
 
 
Похожие темы
Форум Тема Автор Торрент Отв. Посл. сооб.
Зарубежное кино [HDDVDRip / BDRip / WEB-DL / HDTV 1080/720р] Кража автомобилей / Stealing Cars (Брэдли Каплан) [2015 г., драма, WEB-DL 1080p] MVO + Original makkol
5 | 0

0 | 644

7

01.05.2016 10:14


Яндекс.Метрика powered by Sphinx


В Н И М А Н И Е
Сайт не распространяет и не хранит электронные версии произведений, а лишь бесплатно и без коммерческой выгоды (не требуя взамен платы,
SMS и т.д.) предоставляет доступ к создаваемому пользователями каталогу ссылок на торрент-файлы, которые содержат только списки хеш-сумм.
Убедительная просьба с жалобами обращаться напрямую к пользователю, разместившему торрент файл.

Вверх