Loading...
Error

Дикая природа и времена года / A Year in the Wild (1-5 серии из 5) [2014 г., документальный, природа, флора, фауна, SatRip] Dub

Статистика раздачи
Размер:  3 GB   |    Зарегистрирован:  8 месяцев   |    Скачан:  16 раз

Полного источника не было: 9 часов

Сидов:  0  |  0 KB/s  ]   Личеров:  0  |  0 KB/s  ]

* - сиды/пиры с внешних источников

   
 
Автор Сообщение

ARI71 Пол:Муж

04-Апр-2016 08:03

Дикая природа и времена года / A Year in the Wild (1-5 серии из 5)


Год выпуска: 2014
Жанр: документальный, природа, флора, фауна
Страна: ЮАР Earth Touch & Off The Fence Productions
Режиссер: Даниэла Пурверер
Сюжет фильма:
Путешествуя в течение года по всему миру, мы станем свидетелями того, как смена времен года влияет на разные континенты нашей планеты, а также как с этими изменениями справляются животные и растения. Например, во время сезона дождей в Африке растительный мир оживает, и такие животные, как белогорлая мартышка, могут наслаждаться любимым лакомством — инжиром. Однако, когда дожди прекращаются, и наступает засуха, животным приходится бороться за свое выживание. А на северных территориях температура может опускаться ниже нуля, но в результате глобального потепления лед образуется крайне медленно. С каждым годом погодные условия становятся всё более суровыми, тем не менее, растения и животные приобретают новые навыки выживания. Нас ждет незабываемое приключение, благодаря которому мы откроем удивительные тайны мира дикой природы и узнаем о том, что приходится преодолевать обитателям нашей планеты во время смены сезонов.
Качество видео: SatRip

Продолжительность: 5 x ~ 00:43:00
Формат: AVI
Видео: XviD, 704x400, ~1796 kbps
Аудио: русский, (дублированный), AC3 2.0, ~192.00 kbps
(тех. данные всех серий идентичны)
01 серия. Новый год в центре Африки начинается с сезона дождей, и животные могут наслаждаться пышной растительностью.

02 серия. В апреле в Южной Америке настало время для попугаев калита строить свои огромные гнезда. Таким же образом летучие мыши в Южной Африке строят свои гнезда большими группами.

03 серия. В середине года стая львов охотится за своей излюбленной добычей – бизоном. На Сейшелах сухопутные крабы собирают и защищают свой любимый белый цветок.

04 серия. В Африке наступает засуха, и для многих животных поиск пищи становится настоящей борьбой за выживание. В Таиланде сезон дождей затопил рисовые поля и, тем самым, привлек множество красочных птиц.

05 серия. В ноябре в северном полушарии планеты наступает суровая зима. Полярные медведи собираются на берегах Канады в ожидании открытия пути к главному источнику их пропитания – тюленям.

Код:

Общее
Полное имя : D:\A Year in the Wild\part_01.avi
Формат : AVI
Формат/Информация : Audio Video Interleave
Размер файла : 614 Мбайт
Продолжительность : 43 м.
Общий поток : 1996 Кбит/сек
Программа кодирования : TMPGEnc Video Mastering Works 5 Version. 5.0.6.38
Библиотека кодирования : TMPGEnc Video Mastering Works 5 Version. 5.0.6.38

Видео
Идентификатор : 0
Формат : MPEG-4 Visual
Профиль формата : Advanced Simple@L5
Параметр BVOP формата : 2
Параметр QPel формата : Нет
Параметр GMC формата : Без точки перехода
Параметр матрицы формата : Default (H.263)
Режим смешивания : Сжатый битовый поток
Идентификатор кодека : XVID
Идентификатор кодека/Подсказка : XviD
Продолжительность : 43 м.
Битрейт : 1796 Кбит/сек
Ширина : 704 пикселя
Высота : 400 пикселей
Соотношение сторон : 16:9
Частота кадров : 25,000 кадров/сек
Цветовое пространство : YUV
Субдискретизация насыщенности : 4:2:0
Битовая глубина : 8 бит
Тип развёртки : Прогрессивная
Метод сжатия : С потерями
Бит/(Пиксели*Кадры) : 0.255
Размер потока : 553 Мбайт (90%)
Библиотека кодирования : XviD 73

Аудио
Идентификатор : 1
Формат : AC-3
Формат/Информация : Audio Coding 3
Расширение режима : CM (complete main)
Параметр Endianness формата : Big
Идентификатор кодека : 2000
Продолжительность : 43 м.
Вид битрейта : Постоянный
Битрейт : 192 Кбит/сек
Каналы : 2 канала
Расположение каналов : Front: L R
Частота : 48,0 КГц
Метод сжатия : С потерями
Размер потока : 59,1 Мбайт (10%)
Выравнивание : Соединение по промежуткам
Продолжительность промежутка : 240 мс. (6,00 видеокадров)
Время предзагрузки промежутка : 224 мс.
Релиз группы:

picpicpicpicpic
Для увеличения картинки щелкните мышкой по превью

Этот торрент недоступен для скачивания без регистрации, однако доступен по публичной magnet-ссылке (источники с публичных трекеров). Перед использованием ссылки прочтите, пожалуйста Пользовательское соглашение, а также как можно дольше оставайтесь на раздаче! Для того, чтобы скачать сам торрент-файл (который видит больше источников), а также для того, чтобы поблагодарить релизера, вам необходимо зарегистрироваться. Если регистрироваться лень - вы можете также попробовать скачать релиз по нашим партнерским ссылкам ниже.

[underverse.su].t64855.torrent
Трекер: Зарегистрирован   [ 04.04.2016 08:03 ]  

Статус: проверено (by makkol at 04.04.2016 10:35)
Поблагодарили: 1 человек
Тип торрента: публичный - доступные источники с открытых трекеров: 
Размер: 3 GB (занимает 0,68 DVDR, для записи нужно 1 болванка DVDR/RW)
 
 
Похожие темы
Форум Тема Автор Торрент Отв. Посл. сооб.
National Geographic Дикая природа Таиланда / Wild Thailand (2 серии из 2) / (Канит Прукпракарн, Петер Ринггаард) [2013 г., документальный, познавательный, фауна, флора, HDTV 1080i] Dub + VO (Ukr) + Original (Eng) ARI71
1 | 0

1 | 487

6

24.09.2016 21:34

Научно-популярные фильмы Дикая природа Нидерландов / De Nieuwe Wildernis (1-3 серии из 3) [2013 г., документальный, флора, фауна, SatRip] VO ARI71
1 | 0

0 | 770

5

28.02.2016 17:20

Научно-популярные фильмы Дикая природа Нидерландов / De Nieuwe Wildernis (1-3 серии из 3) / (Рубен Смит, Марк Веркерк) [2013 г., документальный, флора, фауна, HDTVRip 720p] VO + Original (Eng) ARI71
2 | 2

0 | 419

1

06.07.2016 16:03

Документальное кино [DVD / HDDVD / BD / Remux] Дикая природа России / Россия от края до края / Wild Russia (Тобиас Менле / Tobias Mennle, Иво Неренберг / Ivo Norenberg) [2009, Документальный, живая природа, BD-Remux 1080i] (1-6 серий из 6) uzi2009
4 | 0

0 | 913

3

09.05.2014 11:05

Документальное кино [DVD / HDDVD / BD / Remux] Дикая природа Скандинавии / Wild Scandinavia / Wildes Skandinavien (Уве Андерс, Оливер Гётцль, Ян Хафт, Тобиас Меннле / Uwe Anders, Oliver Goetzl, Jan Haft, Tobias Mennle) [2011 г., документальный,... uzi2009
4 | 2

0 | 1040

4

16.07.2014 07:05

Документальное кино [DVD / HDDVD / BD / Remux] Дикая природа Японии / Wildes Japan (Jens Westphalen, Thoralf Grospitz) [2010, Документальный, Blu-ray 1080i] AVO (Ю.Сербин), Original (Ger) uzi2009
3 | 0

0 | 1037

7

16.07.2014 07:22


Яндекс.Метрика powered by Sphinx


В Н И М А Н И Е
Сайт не распространяет и не хранит электронные версии произведений, а лишь бесплатно и без коммерческой выгоды (не требуя взамен платы,
SMS и т.д.) предоставляет доступ к создаваемому пользователями каталогу ссылок на торрент-файлы, которые содержат только списки хеш-сумм.
Убедительная просьба с жалобами обращаться напрямую к пользователю, разместившему торрент файл.

Вверх