Loading...
Error

BBC: Девять месяцев, которые создают нас / BBC: The Nine Months That Made You (1-3 серии из 3) [2015 г., документальный, здоровье, научно-познавательный, SatRip] Dub

Статистика раздачи
Размер:  2,16 GB   |    Зарегистрирован:  8 месяцев   |    Скачан:  22 раза
Сидов:  1  |  17 KB/s  ]   Личеров:  0  |  0 KB/s  ]

* - сиды/пиры с внешних источников

   
 
Автор Сообщение

ARI71 Пол:Муж

04-Апр-2016 07:02

BBC: Девять месяцев, которые создают нас / BBC: The Nine Months That Made You (1-3 серии из 3)


Год выпуска: 2015
Жанр: документальный, здоровье, научно-познавательный
Страна: Великобритания
Студия: BBC Open University Partnership, BBC Science Production
Режиссер: Наоми Аустин, Хелен Садже, Мартин Джонсон
Сюжет фильма:
Как появляется человек? 100 триллионов клеток. 280 дней. Одна человеческая жизнь. С момента зачатия до рождения. Это гонка со временем, в которой каждое мгновение имеет значение.
Качество видео: SatRip

Продолжительность: 3 x ~ 00:51:00
Формат: AVI
Видео: XviD, 720x400, ~1797 kbps
Аудио: русский, (дублированный), AC3 2.0, ~192.00 kbps
(тех. данные всех серий идентичны)
01. Первые восемь недель / The First Eight Weeks
В первом эпизоде мы рассмотрим наши первые, после зачатия, восемь недель жизни - самое опасное время в утробе матери. Это время, когда все лежит на чаше весов. Когда минута за минутой, час за часом происходит ряд решающих событий, которые формируют каждого из нас. Время - когда определяется расположение наших органов, когда наше сердце делает свой первый удар, и когда может быть определена длина нашей жизни. Это время, когда случится может что угодно и любые необратимые последствия могут оказать влияние на всю нашу последующую жизнь.

02. Вопреки всему / Against The Odds
Во втором эпизоде мы узнаем историю наших средних недель в утробе матери - когда мы становимся личностью. Через 8 недель мы все переходим на новый этап развития на котором происходит то, что делает каждого из нас уникальным. Мы узнаем когда формируется лицо, капилярный узор пальцев и цвет кожи. И наше отношение к полу и сексу тоже может быть определено задолго до рождения.

03. Последнее усилие / The Final Push
В заключительной части этой эпической серии мы рассмотрим последние месяцы жизни в утробе матери, когда хрящ твердеет, образуя скелет, когда готовы открыться глаза, включается зрение, лёгкие готовятся сделать первый вдох и нам предстоит встретиться с окружающим миром и начать самостоятельную жизнь.

Код:

Общее
Полное имя : D:\BBC_9 months that made You\01_The First 8 Weeks.avi
Формат : AVI
Формат/Информация : Audio Video Interleave
Размер файла : 734 Мбайт
Продолжительность : 51 м.
Общий поток : 1996 Кбит/сек
Программа кодирования : TMPGEnc Video Mastering Works 5 Version. 5.0.6.38
Библиотека кодирования : TMPGEnc Video Mastering Works 5 Version. 5.0.6.38

Видео
Идентификатор : 0
Формат : MPEG-4 Visual
Профиль формата : Advanced Simple@L5
Параметр BVOP формата : 2
Параметр QPel формата : Нет
Параметр GMC формата : Без точки перехода
Параметр матрицы формата : Default (H.263)
Режим смешивания : Сжатый битовый поток
Идентификатор кодека : XVID
Идентификатор кодека/Подсказка : XviD
Продолжительность : 51 м.
Битрейт : 1797 Кбит/сек
Ширина : 720 пикселей
Высота : 400 пикселей
Соотношение сторон : 16:9
Частота кадров : 25,000 кадров/сек
Цветовое пространство : YUV
Субдискретизация насыщенности : 4:2:0
Битовая глубина : 8 бит
Тип развёртки : Прогрессивная
Метод сжатия : С потерями
Бит/(Пиксели*Кадры) : 0.250
Размер потока : 661 Мбайт (90%)
Библиотека кодирования : XviD 73

Аудио
Идентификатор : 1
Формат : AC-3
Формат/Информация : Audio Coding 3
Расширение режима : CM (complete main)
Параметр Endianness формата : Big
Идентификатор кодека : 2000
Продолжительность : 51 м.
Вид битрейта : Постоянный
Битрейт : 192 Кбит/сек
Каналы : 2 канала
Расположение каналов : Front: L R
Частота : 48,0 КГц
Метод сжатия : С потерями
Размер потока : 70,6 Мбайт (10%)
Выравнивание : Соединение по промежуткам
Продолжительность промежутка : 240 мс. (6,00 видеокадров)
Время предзагрузки промежутка : 224 мс.
picpicpicpic
Для увеличения картинки щелкните мышкой по превью

Этот торрент недоступен для скачивания без регистрации, однако доступен по публичной magnet-ссылке (источники с публичных трекеров). Перед использованием ссылки прочтите, пожалуйста Пользовательское соглашение, а также как можно дольше оставайтесь на раздаче! Для того, чтобы скачать сам торрент-файл (который видит больше источников), а также для того, чтобы поблагодарить релизера, вам необходимо зарегистрироваться. Если регистрироваться лень - вы можете также попробовать скачать релиз по нашим партнерским ссылкам ниже.

[underverse.su].t64853.torrent
Трекер: Зарегистрирован   [ 04.04.2016 07:02 ]  

Статус: проверено (by makkol at 04.04.2016 08:03)
Поблагодарили: пока никто не поблагодарил...
Тип торрента: публичный - доступные источники с открытых трекеров: 
Размер: 2,16 GB (занимает 0,49 DVDR, для записи нужно 1 болванка DVDR/RW)
 
 

Яндекс.Метрика powered by Sphinx


В Н И М А Н И Е
Сайт не распространяет и не хранит электронные версии произведений, а лишь бесплатно и без коммерческой выгоды (не требуя взамен платы,
SMS и т.д.) предоставляет доступ к создаваемому пользователями каталогу ссылок на торрент-файлы, которые содержат только списки хеш-сумм.
Убедительная просьба с жалобами обращаться напрямую к пользователю, разместившему торрент файл.

Вверх