Loading...
Error

Ублюдок / Creep (Патрик Брайс) [2014 г., ужасы, драма, WEB-DLRip] AVO (Дольский) + Original

Статистика раздачи
Размер:  1,46 GB   |    Зарегистрирован:  8 месяцев   |    Скачан:  10 раз
Сидов:  1  |  0 KB/s  ]   Личеров:  0  |  0 KB/s  ]

* - сиды/пиры с внешних источников

   
 
Автор Сообщение

makkol Пол:Муж

03-Апр-2016 11:41

Ублюдок / Creep


Год выпуска: 2014
Жанр: ужасы, драма
Производство: США [Blumhouse Productions]
Режиссер: Патрик Брайс
В ролях: Патрик Брайс, Марк Дюпласс
Сюжет фильма:
Видеолюбитель Аарон получает странное предложение о работе: приехать в удалённый горный посёлок и поработать личным оператором для одного чудака. Постепенно шалости заказчика становятся все серьёзнее и опаснее, пока не перерастают в нечто очень зловещее.

  • Мировая премьера: 8 марта 2014


Качество видео: WEB-DLRip

Продолжительность: 01:17:37
Формат: AVI
Видео: XviD, 720x400 (16:9), 23.976 fps, 1912 kbps
Аудио #1: русский, авторский одноголосый закадровый (Андрей Дольский), AC3 5.1, 48 kHz, 384 kbps
Аудио #2: английский, оригинал, AC3 5.1, 48 kHz, 384 kbps

Код:

Format                      : AVI
Format/Info                 : Audio Video Interleave
File size                   : 1.46 GiB
Duration                    : 1h 17mn
Overall bit rate            : 2 693 Kbps
Writing application         : VirtualDubMod 1.5.10.2 (build 2540/release)
Writing library             : VirtualDubMod build 2540/release

Video
ID                          : 0
Format                      : MPEG-4 Visual
Format profile              : Advanced Simple@L5
Format settings, BVOP       : 1
Format settings, QPel       : No
Format settings, GMC        : No warppoints
Format settings, Matrix     : Default (MPEG)
Codec ID                    : XVID
Codec ID/Hint               : XviD
Duration                    : 1h 17mn
Bit rate                    : 1 912 Kbps
Width                       : 720 pixels
Height                      : 400 pixels
Display aspect ratio        : 16:9
Frame rate                  : 23.976 (24000/1001) fps
Color space                 : YUV
Chroma subsampling          : 4:2:0
Bit depth                   : 8 bits
Scan type                   : Progressive
Compression mode            : Lossy
Bits/(Pixel*Frame)          : 0.277
Stream size                 : 1.04 GiB (71%)
Writing library             : XviD 67

Audio #1
ID                          : 1
Format                      : AC-3
Format/Info                 : Audio Coding 3
Mode extension              : CM (complete main)
Format settings, Endianness : Big
Codec ID                    : 2000
Duration                    : 1h 17mn
Bit rate mode               : Constant
Bit rate                    : 384 Kbps
Channel(s)                  : 6 channels
Channel positions           : Front: L C R, Side: L R, LFE
Sampling rate               : 48.0 KHz
Frame rate                  : 31.250 fps (1536 spf)
Compression mode            : Lossy
Stream size                 : 213 MiB (14%)
Alignment                   : Split accross interleaves
Interleave, duration        : 42 ms (1.00 video frame)
Interleave, preload duratio : 500 ms
Title                       : RUS AVO

Audio #2
ID                          : 2
Format                      : AC-3
Format/Info                 : Audio Coding 3
Mode extension              : CM (complete main)
Format settings, Endianness : Big
Codec ID                    : 2000
Duration                    : 1h 17mn
Bit rate mode               : Constant
Bit rate                    : 384 Kbps
Channel(s)                  : 6 channels
Channel positions           : Front: L C R, Side: L R, LFE
Sampling rate               : 48.0 KHz
Frame rate                  : 31.250 fps (1536 spf)
Compression mode            : Lossy
Stream size                 : 213 MiB (14%)
Alignment                   : Split accross interleaves
Interleave, duration        : 42 ms (1.00 video frame)
Interleave, preload duratio : 500 ms
Title                       : ENG
Релиз от: ylnian

picpicpicpicpic
Для увеличения картинки щелкните мышкой по превью

Этот торрент недоступен для скачивания без регистрации, однако доступен по публичной magnet-ссылке (источники с публичных трекеров). Перед использованием ссылки прочтите, пожалуйста Пользовательское соглашение, а также как можно дольше оставайтесь на раздаче! Для того, чтобы скачать сам торрент-файл (который видит больше источников), а также для того, чтобы поблагодарить релизера, вам необходимо зарегистрироваться. Если регистрироваться лень - вы можете также попробовать скачать релиз по нашим партнерским ссылкам ниже.

[underverse.su].t64837.torrent
Трекер: Зарегистрирован   [ 03.04.2016 11:41 ]  

Статус: проверено (by makkol at 06.04.2016 15:44)
Поблагодарили: 1 человек
Тип торрента: публичный - доступные источники с открытых трекеров: 
Размер: 1,46 GB (занимает 0,33 DVDR, для записи нужно 1 болванка DVDR/RW)
 
 
Похожие темы
Форум Тема Автор Торрент Отв. Посл. сооб.
Зарубежное кино [DVDRip, Low-Res HDRip, и т.д.] Ублюдок / Выродок / Бастард / Bastard (Карстен Унгер) [2011 г., триллер, драма, детектив, DVDRip] DVO [DeadSno & den904] + Original Паукан
0 | 0

0 | 1762

9

20.11.2013 13:59

Зарубежное кино [DVDRip, Low-Res HDRip, и т.д.] Ублюдок / Bastard (Пауэлл Робинсон, Патрик Роберт Янг) [2015 г., ужасы, DVDRip] VO makkol
15 | 0

0 | 491

15

29.12.2015 15:20

Зарубежное кино [HDDVDRip / BDRip / WEB-DL / HDTV 1080/720р] Ублюдок / Creep (Патрик Брайс) [2014 г., ужасы, драма, WEB-DL 720p] AVO (Дольский) + VO + Original makkol
5 | 0

0 | 706

16

03.04.2016 11:54


Яндекс.Метрика powered by Sphinx


В Н И М А Н И Е
Сайт не распространяет и не хранит электронные версии произведений, а лишь бесплатно и без коммерческой выгоды (не требуя взамен платы,
SMS и т.д.) предоставляет доступ к создаваемому пользователями каталогу ссылок на торрент-файлы, которые содержат только списки хеш-сумм.
Убедительная просьба с жалобами обращаться напрямую к пользователю, разместившему торрент файл.

Вверх