Loading...
Error

Федор Иванович Тютчев [2003 г., документальный, биография, поэзия, TVRip]

Статистика раздачи
Размер:  136 MB   |    Зарегистрирован:  7 месяцев   |    Скачан:  6 раз

Полного источника не было: 1 месяц 5 дней

Сидов:  0  |  0 KB/s  ]   Личеров:  0  |  0 KB/s  ]

* - сиды/пиры с внешних источников

   
 
Автор Сообщение

ARI71 Пол:Муж

03-Апр-2016 11:22

Федор Иванович Тютчев


Год выпуска: 2003
Жанр: документальный, биография, поэзия
Страна: Россия "24 ДОК"
Режиссер: Алексей Гусев
Сюжет фильма:
Краткий биографический очерк жизни и творческого пути замечательного русского поэта ХIХ века Федора Ивановича Тютчева.

Фёдор Ива́нович Тю́тчев (23 ноября [5 декабря] 1803, Овстуг, Брянский уезд, Орловская губерния — 15 [27] июля 1873, Царское Село) — русский поэт, дипломат, консервативный публицист, член-корреспондент Петербургской Академии Наук с 1857 года, тайный советник.

Качество видео: TVRip

Продолжительность: 00:15:49
Формат: AVI
Видео: XviD, 640x480, ~1060 kbps
Аудио: русский, (оригинал), MP3 2.0, ~128.00 kbps

Код:

Общее
Полное имя : D:\Тютчев.avi
Формат : AVI
Формат/Информация : Audio Video Interleave
Размер файла : 136 Мбайт
Продолжительность : 15 м.
Общий поток : 1201 Кбит/сек
Программа кодирования : MEncoder SVN-r29318(20090522-gcc4.3.3)
Библиотека кодирования : MPlayer

Видео
Идентификатор : 0
Формат : MPEG-4 Visual
Профиль формата : Advanced Simple@L5
Параметр BVOP формата : 2
Параметр QPel формата : Нет
Параметр GMC формата : Без точки перехода
Параметр матрицы формата : Default (H.263)
Идентификатор кодека : XVID
Идентификатор кодека/Подсказка : XviD
Продолжительность : 15 м.
Битрейт : 1060 Кбит/сек
Ширина : 640 пикселей
Высота : 480 пикселей
Соотношение сторон : 4:3
Частота кадров : 25,000 кадров/сек
Цветовое пространство : YUV
Субдискретизация насыщенности : 4:2:0
Битовая глубина : 8 бит
Тип развёртки : Прогрессивная
Метод сжатия : С потерями
Бит/(Пиксели*Кадры) : 0.138
Размер потока : 120 Мбайт (88%)
Библиотека кодирования : XviD 1.2.1 (UTC 2008-12-04)

Аудио
Идентификатор : 1
Формат : MPEG Audio
Версия формата : Version 1
Профиль формата : Layer 3
Режим : Joint stereo
Расширение режима : MS Stereo
Идентификатор кодека : 55
Идентификатор кодека/Подсказка : MP3
Продолжительность : 15 м.
Вид битрейта : Постоянный
Битрейт : 128 Кбит/сек
Каналы : 2 канала
Частота : 44,1 КГц
Метод сжатия : С потерями
Задержка видео : 40 мс.
Размер потока : 14,5 Мбайт (11%)
Выравнивание : Соединение по промежуткам
Продолжительность промежутка : 26 мс. (0,65 видеокадр)
Время предзагрузки промежутка : 522 мс.
Библиотека кодирования : LAME3.98
picpicpicpicpic
Для увеличения картинки щелкните мышкой по превью

Этот торрент недоступен для скачивания без регистрации, однако доступен по публичной magnet-ссылке (источники с публичных трекеров). Перед использованием ссылки прочтите, пожалуйста Пользовательское соглашение, а также как можно дольше оставайтесь на раздаче! Для того, чтобы скачать сам торрент-файл (который видит больше источников), а также для того, чтобы поблагодарить релизера, вам необходимо зарегистрироваться. Если регистрироваться лень - вы можете также попробовать скачать релиз по нашим партнерским ссылкам ниже.

[underverse.su].t64836.torrent
Трекер: Зарегистрирован   [ 03.04.2016 11:22 ]  

Статус: проверено (by makkol at 03.04.2016 11:31)
Поблагодарили: 1 человек
Тип торрента: публичный - доступные источники с открытых трекеров: 
Размер: 136 MB (занимает 0,03 DVDR, для записи нужно 1 болванка DVDR/RW)
 
 

astra265 Пол:Жен

06-Апр-2016 19:33

Спасибо :roll:

ARI71 Пол:Муж

07-Апр-2016 11:42

Пожалуйста! Всегда рад.

Яндекс.Метрика powered by Sphinx


В Н И М А Н И Е
Сайт не распространяет и не хранит электронные версии произведений, а лишь бесплатно и без коммерческой выгоды (не требуя взамен платы,
SMS и т.д.) предоставляет доступ к создаваемому пользователями каталогу ссылок на торрент-файлы, которые содержат только списки хеш-сумм.
Убедительная просьба с жалобами обращаться напрямую к пользователю, разместившему торрент файл.

Вверх