Loading...
Error

Как уходили кумиры. Артем Боровик [2006 г., документальный, биография, TVRip]

Статистика раздачи
Размер:  162 MB   |    Зарегистрирован:  8 месяцев   |    Скачан:  2 раза

Полного источника не было: 8 месяцев

Сидов:  0  |  0 KB/s  ]   Личеров:  0  |  0 KB/s  ]

* - сиды/пиры с внешних источников

   
 
Автор Сообщение

ARI71 Пол:Муж

31-Мар-2016 06:45

Как уходили кумиры. Артем Боровик


Год выпуска: 2006
Жанр: документальный, биография
Страна: Россия ДТВ
Режиссер: Михаил Роговой
Сюжет фильма:
Они уходили по-разному. Кто-то молодым, в самом расцвете сил. Кто-то прожил долго и плодотворно. Одни были счастливы, другие не успели сделать и половины. В телевизионном документальном сериале "Как уходили кумиры" - рассказ о наших выдающихся артистах, режиссерах, поэтах, телеведущих, спортсменах и мастеров спорта. Об их судьбах, о линиях жизни, которые, увы, закончились...

Артём Ге́нрихович Борови́к (13 сентября 1960 — 9 марта 2000) — российский журналист, президент издательского холдинга «Совершенно секретно».

Рейтинг сериала:
Качество видео: TVRip

Продолжительность: 00:19:28
Формат: AVI
Видео: XviD, 720x576, ~1022 kbps
Аудио: русский, (оригинал), MP3 2.0, ~128.00 kbps

Код:

Общее
Полное имя : D:\Боровик Артем.avi
Формат : AVI
Формат/Информация : Audio Video Interleave
Размер файла : 162 Мбайт
Продолжительность : 19 м.
Общий поток : 1163 Кбит/сек
Программа кодирования : MEncoder SVN-r33883(20110719-gcc4.5.2)
Библиотека кодирования : MPlayer

Видео
Идентификатор : 0
Формат : MPEG-4 Visual
Профиль формата : Advanced Simple@L5
Параметр BVOP формата : 2
Параметр QPel формата : Нет
Параметр GMC формата : Без точки перехода
Параметр матрицы формата : Default (H.263)
Идентификатор кодека : XVID
Идентификатор кодека/Подсказка : XviD
Продолжительность : 19 м.
Битрейт : 1022 Кбит/сек
Ширина : 720 пикселей
Высота : 576 пикселей
Соотношение сторон : 4:3
Частота кадров : 25,000 кадров/сек
Стандарт вещания : PAL
Цветовое пространство : YUV
Субдискретизация насыщенности : 4:2:0
Битовая глубина : 8 бит
Тип развёртки : Прогрессивная
Метод сжатия : С потерями
Бит/(Пиксели*Кадры) : 0.099
Размер потока : 142 Мбайт (88%)
Библиотека кодирования : XviD 1.2.1 (UTC 2008-12-04)

Аудио
Идентификатор : 1
Формат : MPEG Audio
Версия формата : Version 1
Профиль формата : Layer 3
Режим : Joint stereo
Расширение режима : MS Stereo
Идентификатор кодека : 55
Идентификатор кодека/Подсказка : MP3
Продолжительность : 19 м.
Вид битрейта : Постоянный
Битрейт : 128 Кбит/сек
Каналы : 2 канала
Частота : 48,0 КГц
Метод сжатия : С потерями
Задержка видео : 40 мс.
Размер потока : 17,8 Мбайт (11%)
Выравнивание : Соединение по промежуткам
Продолжительность промежутка : 24 мс. (0,60 видеокадр)
Время предзагрузки промежутка : 504 мс.
Библиотека кодирования : LAME3.98.4
picpicpicpicpic
Для увеличения картинки щелкните мышкой по превью

Этот торрент недоступен для скачивания без регистрации, однако доступен по публичной magnet-ссылке (источники с публичных трекеров). Перед использованием ссылки прочтите, пожалуйста Пользовательское соглашение, а также как можно дольше оставайтесь на раздаче! Для того, чтобы скачать сам торрент-файл (который видит больше источников), а также для того, чтобы поблагодарить релизера, вам необходимо зарегистрироваться. Если регистрироваться лень - вы можете также попробовать скачать релиз по нашим партнерским ссылкам ниже.

[underverse.su].t64764.torrent
Трекер: Зарегистрирован   [ 31.03.2016 06:45 ]  

Статус: проверено (by makkol at 31.03.2016 09:47)
Поблагодарили: пока никто не поблагодарил...
Тип торрента: публичный - доступные источники с открытых трекеров: 
Размер: 162 MB (занимает 0,04 DVDR, для записи нужно 1 болванка DVDR/RW)
 
 
Похожие темы
Форум Тема Автор Торрент Отв. Посл. сооб.
Личности Как уходили кумиры. Игорь Тальков [2007 г., документальный, биография, TVRip] ARI71
0 | 0

1 | 529

2

18.04.2016 09:57

Личности Как уходили кумиры. Виктор Цой [2005 г., документальный, биография, TVRip] ARI71
1 | 0

0 | 504

8

31.03.2016 10:12

Личности Как уходили кумиры. Алексей Каплер [2005 г., документальный, биография, TVRip] ARI71
0 | 1

0 | 338

1

19.04.2016 13:11


Яндекс.Метрика powered by Sphinx


В Н И М А Н И Е
Сайт не распространяет и не хранит электронные версии произведений, а лишь бесплатно и без коммерческой выгоды (не требуя взамен платы,
SMS и т.д.) предоставляет доступ к создаваемому пользователями каталогу ссылок на торрент-файлы, которые содержат только списки хеш-сумм.
Убедительная просьба с жалобами обращаться напрямую к пользователю, разместившему торрент файл.

Вверх