Loading...
Error

Как уходили кумиры. Игорь Тальков [2007 г., документальный, биография, TVRip]

Статистика раздачи
Размер:  390 MB   |    Зарегистрирован:  8 месяцев   |    Скачан:  2 раза

Полного источника не было: 7 месяцев

Сидов:  0  |  0 KB/s  ]   Личеров:  0  |  0 KB/s  ]

* - сиды/пиры с внешних источников

   
 
Автор Сообщение

ARI71 Пол:Муж

30-Мар-2016 18:44

Как уходили кумиры. Игорь Тальков


Год выпуска: 2007
Жанр: документальный, биография
Страна: Россия ДТВ
Режиссер: Дмитрий Кужаров
Сюжет фильма:
Душа этого человека навсегда поселилась в Москве на Чистых Прудах. Когда-то Игорь спел о них песню, и вложил в неё всю боль разочарований. А их в жизни певца было немало. Тальков предчувствовал свою смерть. Однажды он летел на гастроли со своей группой. Кто-то из музыкантов завёл разговор о несчастных случаях, которые нередко случаются в воздухе. На это певец ответил: «Не бойтесь со мной летать. В авиакатастрофе я никогда не погибну. Меня убьют на земле, при большом скоплении народа, а убийцу не найдут». Он оказался прав. 6 октября 1991 года во время гала-концерта, на глазах нескольких десятков людей, выстрел из пистолета оборвал жизнь Игоря Талькова...

И́горь Влади́мирович Талько́в (4 ноября 1956, Грецовка, Щёкинский район, Тульская область — 6 октября 1991, Санкт-Петербург) — советский рок-музыкант, певец, автор песен, поэт, киноактёр.

Рейтинг сериала:

Качество видео: TVRip

Продолжительность: 00:44:40
Формат: AVI
Видео: DivX 5, 640x480, ~1131 kbps
Аудио: русский, (оригинал), MP3 (mono), ~80.00 kbps

Код:

Общее
Полное имя : D:\Тальков Игорь-STILUS.avi
Формат : AVI
Формат/Информация : Audio Video Interleave
Размер файла : 390 Мбайт
Продолжительность : 44 м.
Общий поток : 1221 Кбит/сек
Библиотека кодирования : VirtualDub build 18160/release

Видео
Идентификатор : 0
Формат : MPEG-4 Visual
Параметр BVOP формата : 1
Параметр QPel формата : Нет
Параметр GMC формата : Без точки перехода
Параметр матрицы формата : Default (H.263)
Режим смешивания : Сжатый битовый поток
Идентификатор кодека : DX50
Идентификатор кодека/Подсказка : DivX 5
Продолжительность : 44 м.
Битрейт : 1131 Кбит/сек
Ширина : 640 пикселей
Высота : 480 пикселей
Соотношение сторон : 4:3
Частота кадров : 25,000 кадров/сек
Цветовое пространство : YUV
Субдискретизация насыщенности : 4:2:0
Битовая глубина : 8 бит
Тип развёртки : Прогрессивная
Метод сжатия : С потерями
Бит/(Пиксели*Кадры) : 0.147
Размер потока : 362 Мбайт (93%)
Библиотека кодирования : DivX 6.2.5 (UTC 2006-07)

Аудио
Идентификатор : 1
Формат : MPEG Audio
Версия формата : Version 1
Профиль формата : Layer 3
Идентификатор кодека : 55
Идентификатор кодека/Подсказка : MP3
Продолжительность : 44 м.
Вид битрейта : Постоянный
Битрейт : 80,0 Кбит/сек
Каналы : 1 канал
Частота : 44,1 КГц
Метод сжатия : С потерями
Задержка видео : 8 мс.
Размер потока : 25,6 Мбайт (7%)
Выравнивание : Разделение по промежуткам
Продолжительность промежутка : 40 мс. (1,00 видеокадр)
picpicpicpicpic
Для увеличения картинки щелкните мышкой по превью

Этот торрент недоступен для скачивания без регистрации, однако доступен по публичной magnet-ссылке (источники с публичных трекеров). Перед использованием ссылки прочтите, пожалуйста Пользовательское соглашение, а также как можно дольше оставайтесь на раздаче! Для того, чтобы скачать сам торрент-файл (который видит больше источников), а также для того, чтобы поблагодарить релизера, вам необходимо зарегистрироваться. Если регистрироваться лень - вы можете также попробовать скачать релиз по нашим партнерским ссылкам ниже.

[underverse.su].t64758.torrent
Трекер: Зарегистрирован   [ 30.03.2016 18:44 ]  

Статус: проверено (by makkol at 30.03.2016 22:29)
Поблагодарили: 2 человека
Тип торрента: публичный - доступные источники с открытых трекеров: 
Размер: 390 MB (занимает 0,09 DVDR, для записи нужно 1 болванка DVDR/RW)
 
 
Похожие темы
Форум Тема Автор Торрент Отв. Посл. сооб.
Личности Как уходили кумиры. Артем Боровик [2006 г., документальный, биография, TVRip] ARI71
0 | 0

0 | 422

2

31.03.2016 06:45

Личности Как уходили кумиры. Виктор Цой [2005 г., документальный, биография, TVRip] ARI71
0 | 0

0 | 504

8

31.03.2016 10:12

Личности Как уходили кумиры. Алексей Каплер [2005 г., документальный, биография, TVRip] ARI71
0 | 1

0 | 338

1

19.04.2016 13:11

ARI71 Пол:Муж

18-Апр-2016 09:57

По разным вопросам пишите пож-та мне в личку!

Яндекс.Метрика powered by Sphinx


В Н И М А Н И Е
Сайт не распространяет и не хранит электронные версии произведений, а лишь бесплатно и без коммерческой выгоды (не требуя взамен платы,
SMS и т.д.) предоставляет доступ к создаваемому пользователями каталогу ссылок на торрент-файлы, которые содержат только списки хеш-сумм.
Убедительная просьба с жалобами обращаться напрямую к пользователю, разместившему торрент файл.

Вверх