Loading...
Error

Вакантна жизнь шеф-повара (Рустам Ильясов) [2016 г., драма, WEB-DLRip]

Статистика раздачи
Размер:  1,36 GB   |    Зарегистрирован:  8 месяцев   |    Скачан:  38 раз

Полного источника не было: 7 часов

Сидов:  0  |  0 KB/s  ]   Личеров:  0  |  0 KB/s  ]

* - сиды/пиры с внешних источников

   
 
Автор Сообщение

makkol Пол:Муж

30-Мар-2016 15:54

Вакантна жизнь шеф-повара


Год выпуска: 2016
Жанр: драма
Производство: Россия [Продюсерский центр «ВГИК-Дебют»]
Режиссер: Рустам Ильясов
В ролях: Пётр Фёдоров, Виктор Вержбицкий, Алексей Колубков, Екатерина Молоховская, Александр Обласов, Виктор Проскурин, Вильма Кутавичюте, Софья Райзман, Андрей Капустин, Дмитрий Калязин, Милана Ерошина, Даниил Изотов
Сюжет фильма:
Андрей и Лена — супружеская пара, они молоды и счастливы. Когда Лена уезжает на несколько дней, Андрей уходит в загул со своим лучшим другом. Переезжая из клуба в клуб, Андрей попадает в необычное место под названием «Фотоателье». Там ему предлагают принять участие в интригующей игре: побыть в роли другого человека, на несколько дней став шеф-поваром дорогого ресторана, у которого есть все: богатый дом, интересная работа и красивая жена. Теперь Андрею предстоит многое выяснить: кто такой шеф-повар, кем является он сам, и кому можно доверять в изменившемся мире.

  • Российская премьера: 10 марта 2016


Качество видео: WEB-DLRip

Продолжительность: 01:24:49
Формат: AVI
Видео: XviD, 720x304 (2.35:1), 24.000 fps, 1903 kbps
Аудио: русский, оригинал (iTunes), AC3 5.1, 48 kHz, 384 kbps

Код:

Format : AVI
Format/Info : Audio Video Interleave
File size : 1.36 GiB
Duration : 1h 24mn
Overall bit rate : 2 296 Kbps
Writing application : VirtualDubMod 1.5.10.3 | www.virtualdub-fr.org || (build 2550/release)
Writing library : VirtualDubMod build 2550/release

Video
ID : 0
Format : MPEG-4 Visual
Format profile : Advanced Simple@L5
Format settings, BVOP : 2
Format settings, QPel : No
Format settings, GMC : No warppoints
Format settings, Matrix : Default (MPEG)
Codec ID : XVID
Codec ID/Hint : XviD
Duration : 1h 24mn
Bit rate : 1 903 Kbps
Width : 720 pixels
Height : 304 pixels
Display aspect ratio : 2.35:1
Frame rate : 24.000 fps
Color space : YUV
Chroma subsampling : 4:2:0
Bit depth : 8 bits
Scan type : Progressive
Compression mode : Lossy
Bits/(Pixel*Frame) : 0.362
Stream size : 1.13 GiB (83%)
Writing library : XviD 1.2.1 (UTC 2008-12-04)

Audio
ID : 1
Format : AC-3
Format/Info : Audio Coding 3
Mode extension : CM (complete main)
Format settings, Endianness : Big
Codec ID : 2000
Duration : 1h 24mn
Bit rate mode : Constant
Bit rate : 384 Kbps
Channel(s) : 6 channels
Channel positions : Front: L C R, Side: L R, LFE
Sampling rate : 48.0 KHz
Frame rate : 31.250 fps (1536 spf)
Compression mode : Lossy
Stream size : 233 MiB (17%)
Alignment : Split accross interleaves
Interleave, duration : 42 ms (1.00 video frame)
Interleave, preload duratio : 500 ms
picpicpicpicpic
Для увеличения картинки щелкните мышкой по превью

Этот торрент недоступен для скачивания без регистрации, однако доступен по публичной magnet-ссылке (источники с публичных трекеров). Перед использованием ссылки прочтите, пожалуйста Пользовательское соглашение, а также как можно дольше оставайтесь на раздаче! Для того, чтобы скачать сам торрент-файл (который видит больше источников), а также для того, чтобы поблагодарить релизера, вам необходимо зарегистрироваться. Если регистрироваться лень - вы можете также попробовать скачать релиз по нашим партнерским ссылкам ниже.

[underverse.su].t64753.torrent
Трекер: Зарегистрирован   [ 30.03.2016 15:54 ]  

Статус: T временная (by makkol at 01.04.2016 23:20)
Поблагодарили: 1 человек
Тип торрента: публичный - доступные источники с открытых трекеров: 
Размер: 1,36 GB (занимает 0,31 DVDR, для записи нужно 1 болванка DVDR/RW)
 
 
Похожие темы
Форум Тема Автор Торрент Отв. Посл. сооб.
T Наше кино [HDDVDRip / BDRip / WEB-DL / HDTV 1080/720р] Вакантна жизнь шеф-повара (Рустам Ильясов) [2016 г., драма, WEB-DL 720p] makkol
51 | 3

0 | 570

13

30.03.2016 16:03

T Наше кино [HDDVDRip / BDRip / WEB-DL / HDTV 1080/720р] Вакантна жизнь шеф-повара (Рустам Ильясов) [2016 г., драма, WEB-DL 1080p] makkol
1 | 0

0 | 623

16

30.03.2016 16:11


Яндекс.Метрика powered by Sphinx


В Н И М А Н И Е
Сайт не распространяет и не хранит электронные версии произведений, а лишь бесплатно и без коммерческой выгоды (не требуя взамен платы,
SMS и т.д.) предоставляет доступ к создаваемому пользователями каталогу ссылок на торрент-файлы, которые содержат только списки хеш-сумм.
Убедительная просьба с жалобами обращаться напрямую к пользователю, разместившему торрент файл.

Вверх