Loading...
Error

Вой 6: Уроды Харкера. Последняя атака / Howling VI: Freaks. Final Attack (Хоуп Парелло) [1991 г., ужасы, DVDRip] AVO (Володарский)

Статистика раздачи
Размер:  1,37 GB   |    Зарегистрирован:  8 месяцев   |    Скачан:  3 раза

Полного источника не было: 8 часов

Сидов:  0  |  0 KB/s  ]   Личеров:  0  |  0 KB/s  ]

* - сиды/пиры с внешних источников

   
 
Автор Сообщение

ARI71 Пол:Муж

29-Мар-2016 21:02

Вой 6: Уроды Харкера. Последняя атака / Howling VI: Freaks. Final Attack


Год выпуска: 1991
Жанр: ужасы
Страна: Великобритания [Allied Entertainments Group PLC]
Продолжительность: 01:34:20
Режиссер: Хоуп Парелло
В ролях: Брендан Хьюз, Мишель Мэтисон, Шон Грегори Салливан, Антонио Фаргас, Кэрол Линли
Сюжет фильма:
В маленьком городке таинственным образом пропадают люди. Кто стоит за этими происшествиями? Правду знает только один человек — скромный парень, который на самом деле не так уж и прост. При полной луне он превращается в оборотня и жаждет лишь одного — расквитаться со своим давним врагом-вампиром, возглавляющим бродячий цирк. Жителей городка ждет грандиозная битва монстров, которая перевернет всю их жизнь!

  • Мировая премьера: 13 июня 1991


Качество видео: DVDRip

Формат: AVI
Видео: XviD, 640x480, ~1872 kbps
Аудио: русский, авторский одноголосый закадровый (Леонид Володарский), AC3 2.0, ~192.00 kbps

Код:

Общее
Полное имя : D:\Вой-6 - Howling VI [by Edich2].avi
Формат : AVI
Формат/Информация : Audio Video Interleave
Размер файла : 1,37 Гбайт
Продолжительность : 1 ч. 34 м.
Общий поток : 2074 Кбит/сек
Название фильма : Вой-6 - Howling VI [by Edich2]
Режиссёр : by Edich2
Программа кодирования : VirtualDubModRus 1.5.10.2 (build 2542/release)
Примечание : *другой трекер*

Видео
Идентификатор : 0
Формат : MPEG-4 Visual
Профиль формата : Advanced Simple@L5
Параметр BVOP формата : 1
Параметр QPel формата : Нет
Параметр GMC формата : Без точки перехода
Параметр матрицы формата : Default (H.263)
Идентификатор кодека : XVID
Идентификатор кодека/Подсказка : XviD
Продолжительность : 1 ч. 34 м.
Битрейт : 1872 Кбит/сек
Ширина : 640 пикселей
Высота : 480 пикселей
Соотношение сторон : 4:3
Частота кадров : 25,000 кадров/сек
Цветовое пространство : YUV
Субдискретизация насыщенности : 4:2:0
Битовая глубина : 8 бит
Тип развёртки : Прогрессивная
Метод сжатия : С потерями
Бит/(Пиксели*Кадры) : 0.244
Размер потока : 1,23 Гбайт (90%)
Библиотека кодирования : XviD 1.2.1 (UTC 2008-12-04)

Аудио
Идентификатор : 1
Формат : AC-3
Формат/Информация : Audio Coding 3
Расширение режима : CM (complete main)
Параметр Endianness формата : Big
Идентификатор кодека : 2000
Продолжительность : 1 ч. 34 м.
Вид битрейта : Постоянный
Битрейт : 192 Кбит/сек
Каналы : 2 канала
Расположение каналов : Front: L R
Частота : 48,0 КГц
Метод сжатия : С потерями
Размер потока : 130 Мбайт (9%)
Выравнивание : Разделение по промежуткам
Продолжительность промежутка : 40 мс. (1,00 видеокадр)
Время предзагрузки промежутка : 500 мс.
Релиз группы:

picpicpicpicpic
Для увеличения картинки щелкните мышкой по превью

Этот торрент недоступен для скачивания без регистрации, однако доступен по публичной magnet-ссылке (источники с публичных трекеров). Перед использованием ссылки прочтите, пожалуйста Пользовательское соглашение, а также как можно дольше оставайтесь на раздаче! Для того, чтобы скачать сам торрент-файл (который видит больше источников), а также для того, чтобы поблагодарить релизера, вам необходимо зарегистрироваться. Если регистрироваться лень - вы можете также попробовать скачать релиз по нашим партнерским ссылкам ниже.

[underverse.su].t64737.torrent
Трекер: Зарегистрирован   [ 29.03.2016 21:02 ]  

Статус: проверено (by makkol at 29.03.2016 23:03)
Поблагодарили: пока никто не поблагодарил...
Тип торрента: публичный - доступные источники с открытых трекеров: 
Размер: 1,37 GB (занимает 0,31 DVDR, для записи нужно 1 болванка DVDR/RW)
 
 

Яндекс.Метрика powered by Sphinx


В Н И М А Н И Е
Сайт не распространяет и не хранит электронные версии произведений, а лишь бесплатно и без коммерческой выгоды (не требуя взамен платы,
SMS и т.д.) предоставляет доступ к создаваемому пользователями каталогу ссылок на торрент-файлы, которые содержат только списки хеш-сумм.
Убедительная просьба с жалобами обращаться напрямую к пользователю, разместившему торрент файл.

Вверх