Loading...
Error

Филипп - малыш / Philipp, der Kleine (Херрманн Цшохе) [1978 г., сказка, семейный, DVDRip] AVO + Original

Статистика раздачи
Размер:  1,1 GB   |    Зарегистрирован:  8 месяцев   |    Скачан:  2 раза

Полного источника не было: 5 месяцев 15 дней

Сидов:  0  |  0 KB/s  ]   Личеров:  0  |  0 KB/s  ]

* - сиды/пиры с внешних источников

   
 
Автор Сообщение

makkol Пол:Муж

28-Мар-2016 11:39

Филипп - малыш / Philipp, der Kleine


Год выпуска: 1978
Жанр: сказка, семейный
Производство: ГДР [Deutsche Film (DEFA)]
Режиссер: Херрманн Цшохе
В ролях: Анди Гряйсел, Ян Шпицер, Фолькмар Кляйнерт, Ильза Фойгт, Шимон Шурмей, Фред Дельмаре,Мико Пагини, Арним Мюльштадт, Петра Келлинг
Сюжет фильма:
7-летний Филипп очень переживает из-за своего маленького роста. Он намного меньше, чем все его сверстники. Один раз он заходит в лавку музыкальных инструментов и продавец дает ему волшебную свирель с нотами волшебной мелодии. Стоит только заиграть эту мелодию на свирели и задумать, чтобы увеличить что-нибудь, как сразу желание исполняется. Поможет ли ему волшебная свирель вырасти?

  • Мировая премьера: 2 февраля 1978


Качество видео: DVDRip

Продолжительность: 00:58:59
Формат: AVI
Видео: XviD, 720x544 (4:3), 25.000 fps, 2267 kbps
Аудио #1: русский, авторский одноголосый закадровый (Юрий Муравский), AC3 2.0, 48 kHz, 192 kbps
Аудио #2: немецкий, оригинал, AC3 2.0, 48 kHz, 192 kbps

Код:

Общее
Полное имя                               : Philipp.der.Kleine.1976.DVDRip.avi
Формат                                   : AVI
Формат/Информация                        : Audio Video Interleave
Размер файла                             : 1,10 Гбайт
Продолжительность                        : 58 м.
Общий поток                              : 2665 Кбит/сек
Программа кодирования                    : VirtualDubMod 1.5.10.2 (build 2540/release)
Библиотека кодирования                   : VirtualDubMod build 2540/release

Видео
Идентификатор                            : 0
Формат                                   : MPEG-4 Visual
Профиль формата                          : Advanced Simple@L5
Параметр BVOP формата                    : 2
Параметр QPel формата                    : Нет
Параметр GMC формата                     : Без точки перехода
Параметр матрицы формата                 : Default (MPEG)
Идентификатор кодека                     : XVID
Идентификатор кодека/Подсказка           : XviD
Продолжительность                        : 58 м.
Битрейт                                  : 2267 Кбит/сек
Ширина                                   : 720 пикселей
Высота                                   : 544 пикселя
Соотношение сторон                       : 4:3
Частота кадров                           : 25,000 кадров/сек
Цветовое пространство                    : YUV
Субдискретизация насыщенности            : 4:2:0
Битовая глубина                          : 8 бит
Тип развёртки                            : Прогрессивная
Метод сжатия                             : С потерями
Бит/(Пиксели*Кадры)                      : 0.231
Размер потока                            : 956 Мбайт (85%)
Библиотека кодирования                   : XviD 64

Аудио #1
Идентификатор                            : 1
Формат                                   : AC-3
Формат/Информация                        : Audio Coding 3
Расширение режима                        : CM (complete main)
Параметр Endianness формата              : Big
Идентификатор кодека                     : 2000
Продолжительность                        : 58 м.
Вид битрейта                             : Постоянный
Битрейт                                  : 192 Кбит/сек
Каналы                                   : 2 канала
Расположение каналов                     : Front: L R
Частота                                  : 48,0 КГц
Метод сжатия                             : С потерями
Размер потока                            : 81,0 Мбайт (7%)
Выравнивание                             : Разделение по промежуткам
Продолжительность промежутка             : 40  мс. (1,00 видеокадр)
Время предзагрузки промежутка            : 500  мс.

Аудио #2
Идентификатор                            : 2
Формат                                   : AC-3
Формат/Информация                        : Audio Coding 3
Расширение режима                        : CM (complete main)
Параметр Endianness формата              : Big
Идентификатор кодека                     : 2000
Продолжительность                        : 58 м.
Вид битрейта                             : Постоянный
Битрейт                                  : 192 Кбит/сек
Каналы                                   : 2 канала
Расположение каналов                     : Front: L R
Частота                                  : 48,0 КГц
Метод сжатия                             : С потерями
Размер потока                            : 81,0 Мбайт (7%)
Выравнивание                             : Соединение по промежуткам
Продолжительность промежутка             : 40  мс. (1,00 видеокадр)
Время предзагрузки промежутка            : 512  мс.
Перевод: Юрий Муравский
Сведение звука: Артвидео
Организация перевода: Minhers76
Релиз:
picpicpicpicpic
Для увеличения картинки щелкните мышкой по превью

Этот торрент недоступен для скачивания без регистрации, однако доступен по публичной magnet-ссылке (источники с публичных трекеров). Перед использованием ссылки прочтите, пожалуйста Пользовательское соглашение, а также как можно дольше оставайтесь на раздаче! Для того, чтобы скачать сам торрент-файл (который видит больше источников), а также для того, чтобы поблагодарить релизера, вам необходимо зарегистрироваться. Если регистрироваться лень - вы можете также попробовать скачать релиз по нашим партнерским ссылкам ниже.

[underverse.su].t64707.torrent
Трекер: Зарегистрирован   [ 28.03.2016 11:39 ]  

Статус: проверено (by Паукан at 30.03.2016 06:55)
Поблагодарили: 1 человек
Тип торрента: публичный - доступные источники с открытых трекеров: 
Размер: 1,1 GB (занимает 0,25 DVDR, для записи нужно 1 болванка DVDR/RW)
 
 

Яндекс.Метрика powered by Sphinx


В Н И М А Н И Е
Сайт не распространяет и не хранит электронные версии произведений, а лишь бесплатно и без коммерческой выгоды (не требуя взамен платы,
SMS и т.д.) предоставляет доступ к создаваемому пользователями каталогу ссылок на торрент-файлы, которые содержат только списки хеш-сумм.
Убедительная просьба с жалобами обращаться напрямую к пользователю, разместившему торрент файл.

Вверх