Loading...
Error

Никита Михалков. Русский выбор. (Генерал Врангель: Когда мы уйдем) [2003 г., документальный, история, хроника, SatRip]

Статистика раздачи
Размер:  476 MB   |    Зарегистрирован:  8 месяцев   |    Скачан:  11 раз

Полного источника не было: 6 дней

Сидов:  0  |  0 KB/s  ]   Личеров:  0  |  0 KB/s  ]

* - сиды/пиры с внешних источников

   
 
Автор Сообщение

ARI71 Пол:Муж

28-Мар-2016 07:26

Никита Михалков. Русский выбор. (Генерал Врангель: Когда мы уйдем)


Год выпуска: 2003
Жанр: документальный, история, хроника
Страна: Россия
Телеканал: «РТР-Планета»
Продолжительность: 00:43:54
Режиссер: Александр Фетисов
Ведущий: Никита Михалков
Сюжет фильма:
В 1920 году врангелевский Крым был единственным регионом в Европе, вывозившим хлеб на продажу. И цена на него в этом районе была в 4 раза ниже, чем в самой России. Таковы были результаты реформ белого правительства в Крыму, на последнем клочке земли, неподвластном большевикам. Герой Первой Мировой войны, награжденный за личный подвиг солдатским Георгиевским крестом, Петр Николаевич Врангель оказался прекрасным организатором. Однако неумолимый ход событий поставил его перед выбором: либо всем погибнуть под натиском превосходящих сил Красной армии, либо спасти остатки белых сил, но покинуть Родину. Участница тех событий - дочь генерала Врангеля Наталия Петровна Базилевская-Врангель - вспоминает малоизвестные эпизоды из жизни своего отца, последнего главнокомандующего русской армией. Потомки соратников Врангеля и ведущий цикла Никита Михалков рассказывают о достоинстве и чести, с которой русская эмиграция несла свой крест, и о том, как она пыталась сохранить русское культурное наследие.
Качество видео: SatRip

Формат: AVI
Видео: XviD, 640x480, ~1379 kbps
Аудио: русский, (оригинал), MP3 2.0, ~128.00 kbps
Барон Пётр Никола́евич Вра́нгель - (15 (27) августа 1878, Новоалександровск, Ковенская губерния, Российская империя — 25 апреля 1928, Брюссель, Бельгия) — русский военачальник, участник Русско-японской и Первой мировой войн, один из главных руководителей Белого движения в годы Гражданской войны. Главнокомандующий Русской армии в Крыму и Польше (1920). Генерального штаба генерал-лейтенант (1918). Георгиевский кавалер.
Получил прозвище «чёрный барон» за свою традиционную (с сентября 1918 года) повседневную форму одежды — чёрную казачью черкеску с газырями.

Код:

Общее
Полное имя : D:\Nikita.Michalkov.Russkii.wybor.Baron.Wrangel.2003.avi
Формат : AVI
Формат/Информация : Audio Video Interleave
Размер файла : 476 Мбайт
Продолжительность : 43 м.
Общий поток : 1516 Кбит/сек
Программа кодирования : VirtualDubMod 1.5.10.2 (build 2540/release)
Библиотека кодирования : VirtualDubMod build 2540/release

Видео
Идентификатор : 0
Формат : MPEG-4 Visual
Профиль формата : Advanced Simple@L5
Параметр BVOP формата : 1
Параметр QPel формата : Нет
Параметр GMC формата : Без точки перехода
Параметр матрицы формата : Default (MPEG)
Режим смешивания : Сжатый битовый поток
Идентификатор кодека : XVID
Идентификатор кодека/Подсказка : XviD
Продолжительность : 43 м.
Битрейт : 1379 Кбит/сек
Ширина : 640 пикселей
Высота : 480 пикселей
Соотношение сторон : 4:3
Частота кадров : 25,000 кадров/сек
Цветовое пространство : YUV
Субдискретизация насыщенности : 4:2:0
Битовая глубина : 8 бит
Тип развёртки : Прогрессивная
Метод сжатия : С потерями
Бит/(Пиксели*Кадры) : 0.180
Размер потока : 433 Мбайт (91%)
Библиотека кодирования : XviD 1.2.0.dev47 (UTC 2006-11-01)

Аудио
Идентификатор : 1
Формат : MPEG Audio
Версия формата : Version 1
Профиль формата : Layer 3
Режим : Joint stereo
Расширение режима : MS Stereo
Идентификатор кодека : 55
Идентификатор кодека/Подсказка : MP3
Продолжительность : 43 м.
Вид битрейта : Постоянный
Битрейт : 128 Кбит/сек
Каналы : 2 канала
Частота : 48,0 КГц
Метод сжатия : С потерями
Размер потока : 40,2 Мбайт (8%)
Выравнивание : Соединение по промежуткам
Продолжительность промежутка : 40 мс. (1,00 видеокадр)
Время предзагрузки промежутка : 504 мс.
picpicpicpicpic
Для увеличения картинки щелкните мышкой по превью

Этот торрент недоступен для скачивания без регистрации, однако доступен по публичной magnet-ссылке (источники с публичных трекеров). Перед использованием ссылки прочтите, пожалуйста Пользовательское соглашение, а также как можно дольше оставайтесь на раздаче! Для того, чтобы скачать сам торрент-файл (который видит больше источников), а также для того, чтобы поблагодарить релизера, вам необходимо зарегистрироваться. Если регистрироваться лень - вы можете также попробовать скачать релиз по нашим партнерским ссылкам ниже.

[underverse.su].t64704.torrent
Трекер: Зарегистрирован   [ 28.03.2016 07:26 ]  

Статус: проверено (by makkol at 28.03.2016 11:30)
Поблагодарили: пока никто не поблагодарил...
Тип торрента: публичный - доступные источники с открытых трекеров: 
Размер: 476 MB (занимает 0,11 DVDR, для записи нужно 1 болванка DVDR/RW)
 
 

Яндекс.Метрика powered by Sphinx


В Н И М А Н И Е
Сайт не распространяет и не хранит электронные версии произведений, а лишь бесплатно и без коммерческой выгоды (не требуя взамен платы,
SMS и т.д.) предоставляет доступ к создаваемому пользователями каталогу ссылок на торрент-файлы, которые содержат только списки хеш-сумм.
Убедительная просьба с жалобами обращаться напрямую к пользователю, разместившему торрент файл.

Вверх