Loading...
Error

Небольшое привидение: Вы знакомы с моим другом вурдалаком? / Mostly Ghostly: Have You Met My Ghoulfriend? (Питер Хьюит) [2014 г., комедия, семейный, HDRip] Dub

Статистика раздачи
Размер:  1,37 GB   |    Зарегистрирован:  8 месяцев   |    Скачан:  13 раз
Сидов:  1  |  0 KB/s  ]   Личеров:  0  |  0 KB/s  ]

* - сиды/пиры с внешних источников

   
 
Автор Сообщение

makkol Пол:Муж

27-Мар-2016 22:57

Небольшое привидение: Вы знакомы с моим другом вурдалаком?
Mostly Ghostly: Have You Met My Ghoulfriend?


Год выпуска: 2014
Жанр: комедия, семейный
Производство: США [Commotion Pictures, Lookout Entertainment]
Режиссер: Питер Хьюит
В ролях: Белла Торн, Мэдисон Петтис, Анастасия Баранова, Кэлам Уорси, Эрик Аллан Крамер, Рошон Феган, Кэролин Хеннеси, Джоан Риверз, Райан Очоа, Ади Шанкар
Сюжет фильма:
Нелегко быть школьником. Но быть Максом Дойлом еще сложнее: его задирает тупой брат, оценки в школе ниже среднего, а девушки его попросту не замечают. Да, мы еще не все сказали: Макс способен видеть и слышать призраков. Тем временем злой волшебник Фирз готов направить свою армию живых мертвецов на человечество, и остановить его может только наш незадачливый герой. По ходу действия Макс узнает, что способен также управлять духами и призраками. Так что ему придется спасти мир, девушку и ненавистную школу.

Первый фильм находится ЗДЕСЬ

  • Мировая премьера: 2 сентября 2014


Качество видео: HDRip

Продолжительность: 01:30:26
Формат: AVI
Видео: XviD, 720x400 (16:9), 23.976 fps, 1707 kbps
Аудио: русский, дублированный (лицензия), AC3 5.1, 48 kHz, 448 kbps

Код:

Формат                                   : AVI
Формат/Информация                        : Audio Video Interleave
Размер файла                             : 1,37 Гбайт
Продолжительность                        : 1 ч. 30 м.
Общий поток                              : 2164 Кбит/сек
Программа кодирования                    : VirtualDubMod 1.5.10.2 (build 2540/release)
Формат оригинала/Имя                     : Movie

Видео
Идентификатор                            : 0
Формат                                   : MPEG-4 Visual
Профиль формата                          : Advanced Simple@L5
Параметр BVOP формата                    : 2
Параметр QPel формата                    : Нет
Параметр GMC формата                     : Без точки перехода
Параметр матрицы формата                 : Выборочная
Идентификатор кодека                     : XVID
Идентификатор кодека/Подсказка           : XviD
Продолжительность                        : 1 ч. 30 м.
Битрейт                                  : 1707 Кбит/сек
Ширина                                   : 720 пикселей
Высота                                   : 400 пикселей
Соотношение сторон                       : 16:9
Частота кадров                           : 23,976 кадра/сек
Цветовое пространство                    : YUV
Субдискретизация насыщенности            : 4:2:0
Битовая глубина                          : 8 бит
Тип развёртки                            : Прогрессивная
Метод сжатия                             : С потерями
Бит/(Пиксели*Кадры)                      : 0.247
Размер потока                            : 1,08 Гбайт (79%)
Библиотека кодирования                   : XviD 1.2.1 (UTC 2008-12-04)

Аудио
Идентификатор                            : 1
Формат                                   : AC-3
Формат/Информация                        : Audio Coding 3
Расширение режима                        : CM (complete main)
Параметр Endianness формата              : Big
Идентификатор кодека                     : 2000
Продолжительность                        : 1 ч. 30 м.
Вид битрейта                             : Постоянный
Битрейт                                  : 448 Кбит/сек
Каналы                                   : 6 каналов
Расположение каналов                     : Front: L C R, Side: L R, LFE
Частота                                  : 48,0 КГц
Метод сжатия                             : С потерями
Размер потока                            : 290 Мбайт (21%)
Выравнивание                             : Разделение по промежуткам
Продолжительность промежутка             : 42  мс. (1,00 видеокадр)
Время предзагрузки промежутка            : 500  мс.
picpicpicpicpic
Для увеличения картинки щелкните мышкой по превью

Этот торрент недоступен для скачивания без регистрации, однако доступен по публичной magnet-ссылке (источники с публичных трекеров). Перед использованием ссылки прочтите, пожалуйста Пользовательское соглашение, а также как можно дольше оставайтесь на раздаче! Для того, чтобы скачать сам торрент-файл (который видит больше источников), а также для того, чтобы поблагодарить релизера, вам необходимо зарегистрироваться. Если регистрироваться лень - вы можете также попробовать скачать релиз по нашим партнерским ссылкам ниже.

[underverse.su].t64699.torrent
Трекер: Зарегистрирован   [ 27.03.2016 22:57 ]  

Статус: проверено (by Паукан at 30.03.2016 06:56)
Поблагодарили: пока никто не поблагодарил...
Тип торрента: публичный - доступные источники с открытых трекеров: 
Размер: 1,37 GB (занимает 0,31 DVDR, для записи нужно 1 болванка DVDR/RW)
 
 
Похожие темы
Форум Тема Автор Торрент Отв. Посл. сооб.
T Зарубежное кино [DVDRip, Low-Res HDRip, и т.д.] Небольшое ДТП / Fender Bender (Марк Павиа / Mark Pavia) [2016 г., ужасы, триллер, WEB-DLRip] VO (Хихидок) + Original (Eng) + Sub (Eng) 90ytr90
68 | 4

0 | 444

6

27.10.2016 17:51

T Зарубежное кино [DVDRip, Low-Res HDRip, и т.д.] Небольшое привидение: Одна ночь в проклятом доме / Mostly Ghostly 3: One Night in Doom House (Рон Оливер / Ron Oliver) [2016 г., ужасы, фэнтези, семейный, WEB-DLRip] Dub (iTunes) 90ytr90
60 | 5

0 | 414

7

20.10.2016 16:34

T Зарубежное кино [DVDRip, Low-Res HDRip, и т.д.] Небольшое привидение: Одна ночь в проклятом доме / Mostly Ghostly 3: One Night in Doom House (Рон Оливер / Ron Oliver) [2016 г., ужасы, фэнтези, семейный, WEB-DLRip] Dub (iTunes) 90ytr90
66 | 3

0 | 406

4

20.10.2016 16:29

T Зарубежное кино [DVDRip, Low-Res HDRip, и т.д.] Небольшое привидение: Одна ночь в проклятом доме / Mostly Ghostly 3: One Night in Doom House (Рон Оливер) [2016 г., ужасы, фэнтези, семейный, DVDRip] MVO makkol
0 | 0

0 | 169

1

16.10.2016 14:08

Зарубежное кино [DVDRip, Low-Res HDRip, и т.д.] Небольшое привидение / Mostly Ghostly (Ричард Коррелл) [2008 г., фэнтези, детский, DVDRip] DVO makkol
0 | 0

1 | 526

4

06.04.2016 17:11

T Зарубежное кино [HDDVDRip / BDRip / WEB-DL / HDTV 1080/720р] Небольшое привидение: Одна ночь в проклятом доме / Mostly Ghostly 3: One Night in Doom House (Рон Оливер / Ron Oliver) [2016 г., ужасы, фэнтези, семейный, WEB-DL 720p] Dub (iTunes) + Original (Eng) +... 90ytr90
78 | 5

0 | 407

2

20.10.2016 16:40

Зарубежное кино [HDDVDRip / BDRip / WEB-DL / HDTV 1080/720р] Небольшое привидение / Mostly Ghostly (Ричард Коррелл) [2008 г., фэнтези, детский, WEB-DL 720p] DVO + Original makkol
24 | 7

0 | 606

3

10.09.2015 13:27

Зарубежное кино [HDDVDRip / BDRip / WEB-DL / HDTV 1080/720р] Небольшое привидение: Вы знакомы с моим другом вурдалаком? / Mostly Ghostly: Have You Met My Ghoulfriend? (Питер Хьюит) [2014 г., комедия, семейный, BDRip 720p] Dub + Original makkol
0 | 0

0 | 1011

10

27.03.2016 23:07


Яндекс.Метрика powered by Sphinx


В Н И М А Н И Е
Сайт не распространяет и не хранит электронные версии произведений, а лишь бесплатно и без коммерческой выгоды (не требуя взамен платы,
SMS и т.д.) предоставляет доступ к создаваемому пользователями каталогу ссылок на торрент-файлы, которые содержат только списки хеш-сумм.
Убедительная просьба с жалобами обращаться напрямую к пользователю, разместившему торрент файл.

Вверх