Loading...
Error

Укрытие / Shelter (Шрион Бощлинг, Адам Ц. Цаудилл) [2015 г., триллер, драма, фентези, WEB-DLRip] DVO

Статистика раздачи
Размер:  1,36 GB   |    Зарегистрирован:  8 месяцев   |    Скачан:  44 раза
Сидов:  1  |  0 KB/s  ]   Личеров:  0  |  0 KB/s  ]

* - сиды/пиры с внешних источников

   
 
Автор Сообщение

makkol Пол:Муж

27-Мар-2016 13:30

Укрытие / Shelter


Год выпуска: 2015
Жанр: триллер, драма, фентези
Производство: США [Afflicted Pictures]
Режиссер: Шрион Бощлинг, Адам Ц. Цаудилл
В ролях: Сара Стрит, Джефри Грин, Карлос Гарсия, Ёыце Хшиех, Мичаел Патрицк Лане
Сюжет фильма:
Внезапная ядерная зима выжгла земную гладь мгновенно. Несколько укрывшихся в специальном бункере героев чудом выжили от взрыва. Бомбоубежище, дав физическую защиту, лишь замедлило стрелки часов, приближавших смерть. Печальный итог теперь будет тянуться, взвалив большие страдания на судьбы избранных, ведь в подземном хранилище ограниченные запасы продовольствия, воды и абсолютно нет свободы передвижения. Заложникам единственной комнаты осталось уличить подходящий случай, чтобы, поднявшись на поверхность, не опасаться радиации. Но сколько им ждать, оставаясь в изоляции? Неизвестно, как не свихнуться в невыносимых условиях. Очень просто лишится рассудка, поддавшись депрессии. Каждый приговоренный, движимый инстинктами, будет стараться не упасть духом, бороться за спасение, используя физическую силу. Никто из молодых людей не намерен остаться жертвой обстоятельств, но маниакальные наклонности обязательно проявятся у избранного карателя. Он станет чинить бесчинство, полностью освобождая себя от дальнейшей ответственности, рассчитывая выжить без участия остальных.

  • Мировая премьера: 21 апреля 2015


Качество видео: WEB-DLRip

Продолжительность: 01:31:52
Формат: AVI
Видео: XviD, 720x400 (16:9), 25.000 fps, 1917 kbps
Аудио: русский, любительский двухголосый закадровый (Parovoz Production), AC3 2.0, 48 kHz, 192 kbps

Код:

Формат                                   : AVI
Формат/Информация                        : Audio Video Interleave
Размер файла                             : 1,36 Гбайт
Продолжительность                        : 1 ч. 31 м.
Общий поток                              : 2119 Кбит/сек
Программа кодирования                    : VirtualDubMod 1.5.10.3 | www.virtualdub-fr.org || (build 2550/release)
Библиотека кодирования                   : VirtualDubMod build 2550/release

Видео
Идентификатор                            : 0
Формат                                   : MPEG-4 Visual
Профиль формата                          : Advanced Simple@L5
Параметр BVOP формата                    : 2
Параметр QPel формата                    : Нет
Параметр GMC формата                     : Без точки перехода
Параметр матрицы формата                 : Default (H.263)
Идентификатор кодека                     : XVID
Идентификатор кодека/Подсказка           : XviD
Продолжительность                        : 1 ч. 31 м.
Битрейт                                  : 1917 Кбит/сек
Ширина                                   : 720 пикселей
Высота                                   : 400 пикселей
Соотношение сторон                       : 16:9
Частота кадров                           : 25,000 кадров/сек
Цветовое пространство                    : YUV
Субдискретизация насыщенности            : 4:2:0
Битовая глубина                          : 8 бит
Тип развёртки                            : Прогрессивная
Метод сжатия                             : С потерями
Бит/(Пиксели*Кадры)                      : 0.266
Размер потока                            : 1,23 Гбайт (90%)
Библиотека кодирования                   : XviD 73

Аудио
Идентификатор                            : 1
Формат                                   : AC-3
Формат/Информация                        : Audio Coding 3
Расширение режима                        : CM (complete main)
Параметр Endianness формата              : Big
Идентификатор кодека                     : 2000
Продолжительность                        : 1 ч. 31 м.
Вид битрейта                             : Постоянный
Битрейт                                  : 192 Кбит/сек
Каналы                                   : 2 канала
Расположение каналов                     : Front: L R
Частота                                  : 48,0 КГц
Метод сжатия                             : С потерями
Размер потока                            : 126 Мбайт (9%)
Выравнивание                             : Разделение по промежуткам
Продолжительность промежутка             : 40  мс. (1,00 видеокадр)
Время предзагрузки промежутка            : 500  мс.
Релиз без рекламы


picpicpicpicpic
Для увеличения картинки щелкните мышкой по превью

Этот торрент недоступен для скачивания без регистрации, однако доступен по публичной magnet-ссылке (источники с публичных трекеров). Перед использованием ссылки прочтите, пожалуйста Пользовательское соглашение, а также как можно дольше оставайтесь на раздаче! Для того, чтобы скачать сам торрент-файл (который видит больше источников), а также для того, чтобы поблагодарить релизера, вам необходимо зарегистрироваться. Если регистрироваться лень - вы можете также попробовать скачать релиз по нашим партнерским ссылкам ниже.

[underverse.su].t64687.torrent
Трекер: Зарегистрирован   [ 27.03.2016 13:30 ]  

Статус: проверено (by Паукан at 30.03.2016 06:56)
Поблагодарили: 1 человек
Тип торрента: публичный - доступные источники с открытых трекеров: 
Размер: 1,36 GB (занимает 0,31 DVDR, для записи нужно 1 болванка DVDR/RW)
 
 
Похожие темы
Форум Тема Автор Торрент Отв. Посл. сооб.
Зарубежное кино [DVDRip, Low-Res HDRip, и т.д.] Укрытие / Take Shelter (Джефф Николс) [2011 г., драма, HDRip] garry
2 | 0

1 | 526

16

29.05.2012 03:05

Зарубежное кино [DVDRip, Low-Res HDRip, и т.д.] Укрытие / Hideaways (Аньес Мерле) [2011 г., фэнтези, HDRip] MVO + Original Garnett
0 | 0

0 | 666

12

21.10.2012 16:23

Зарубежное кино [DVDRip, Low-Res HDRip, и т.д.] Укрытие / Hide (Джон Грэй) [2011 г., триллер, драма, SatRip] MVO Паукан
0 | 0

0 | 457

13

03.11.2012 08:02


Яндекс.Метрика powered by Sphinx


В Н И М А Н И Е
Сайт не распространяет и не хранит электронные версии произведений, а лишь бесплатно и без коммерческой выгоды (не требуя взамен платы,
SMS и т.д.) предоставляет доступ к создаваемому пользователями каталогу ссылок на торрент-файлы, которые содержат только списки хеш-сумм.
Убедительная просьба с жалобами обращаться напрямую к пользователю, разместившему торрент файл.

Вверх