Loading...
Error

Восхождение (Лариса Шепитько) [1976 г., драма, военный, DVDRip]

Статистика раздачи
Размер:  1,46 GB   |    Зарегистрирован:  8 месяцев   |    Скачан:  6 раз

Полного источника не было: 19 часов

Сидов:  0  |  0 KB/s  ]   Личеров:  0  |  0 KB/s  ]

* - сиды/пиры с внешних источников

   
 
Автор Сообщение

ARI71 Пол:Муж

25-Мар-2016 20:41

Восхождение


Год выпуска: 1976
Жанр: драма, военный
Страна: СССР
Киностудия: "Мосфильм". Третье творческое объединение
Режиссер: Лариса Шепитько
В ролях: Борис Плотников, Владимир Гостюхин, Сергей Яковлев, Людмила Полякова, Виктория Гольдентул, Анатолий Солоницын
Сюжет фильма:
По мотивам повести Василия Быкова “Сотников”.

Оккупированная фашистами Белоруссия. Офицер Сотников и солдат Рыбак отправляются из леса в село добыть еду для партизан, среди которых женщины и дети. Их настигают немцы. Физически немощный Сотников выстоял против пыток и принял казнь, а Рыбак, на коленях моливший о пощаде, согласился стать полицаем.


  • Мировая премьера: Июнь 1977
  • Российская премьера: 2 апреля 1977


Качество видео: DVDRip

Продолжительность: 01:49:14
Формат: AVI
Видео: DivX 5, 640x480, ~1709 kbps
Аудио: русский, (оригинал), AC3 (mono), ~192.00 kbps

Доп. информация: В некоторых эпизодах фильма слышна немецкая речь

Код:

Общее
Полное имя : D:\Voskhozhdeniye_[*другой трекер*]\Voskhozhdeniye.(Larisa.Shepitko.,1976)--Release--APTXAYC.avi
Формат : AVI
Формат/Информация : Audio Video Interleave
Размер файла : 1,46 Гбайт
Продолжительность : 1 ч. 49 м.
Общий поток : 1910 Кбит/сек
Название фильма : The Ascent
Режиссёр : Larisa Shepitko
Примечание : Release--APTXAYC

Видео
Идентификатор : 0
Формат : MPEG-4 Visual
Параметр BVOP формата : 1
Параметр QPel формата : Нет
Параметр GMC формата : Без точки перехода
Параметр матрицы формата : Default (H.263)
Режим смешивания : Сжатый битовый поток
Идентификатор кодека : DX50
Идентификатор кодека/Подсказка : DivX 5
Продолжительность : 1 ч. 49 м.
Битрейт : 1709 Кбит/сек
Ширина : 640 пикселей
Высота : 480 пикселей
Соотношение сторон : 4:3
Частота кадров : 23,976 кадра/сек
Цветовое пространство : YUV
Субдискретизация насыщенности : 4:2:0
Битовая глубина : 8 бит
Тип развёртки : Прогрессивная
Метод сжатия : С потерями
Бит/(Пиксели*Кадры) : 0.232
Размер потока : 1,30 Гбайт (89%)
Заголовок : Video 
Библиотека кодирования : DivX 6.8.3-6.8.4 (UTC 2008-06-07)

Аудио
Идентификатор : 1
Формат : AC-3
Формат/Информация : Audio Coding 3
Расширение режима : CM (complete main)
Параметр Endianness формата : Big
Идентификатор кодека : 2000
Продолжительность : 1 ч. 49 м.
Вид битрейта : Постоянный
Битрейт : 192 Кбит/сек
Каналы : 1 канал
Расположение каналов : Front: C
Частота : 48,0 КГц
Метод сжатия : С потерями
Размер потока : 150 Мбайт (10%)
Выравнивание : Разделение по промежуткам
Продолжительность промежутка : 42 мс. (1,00 видеокадр)
Время предзагрузки промежутка : 500 мс.
Заголовок : Audio
picpicpicpicpicpic
Для увеличения картинки щелкните мышкой по превью

Этот торрент недоступен для скачивания без регистрации, однако доступен по публичной magnet-ссылке (источники с публичных трекеров). Перед использованием ссылки прочтите, пожалуйста Пользовательское соглашение, а также как можно дольше оставайтесь на раздаче! Для того, чтобы скачать сам торрент-файл (который видит больше источников), а также для того, чтобы поблагодарить релизера, вам необходимо зарегистрироваться. Если регистрироваться лень - вы можете также попробовать скачать релиз по нашим партнерским ссылкам ниже.

[underverse.su].t64648.torrent
Трекер: Зарегистрирован   [ 25.03.2016 20:41 ]  

Статус: проверено (by makkol at 25.03.2016 22:19)
Поблагодарили: пока никто не поблагодарил...
Тип торрента: публичный - доступные источники с открытых трекеров: 
Размер: 1,46 GB (занимает 1/3 DVDR, для записи нужно 1 болванка DVDR/RW)
 
 
Похожие темы
Форум Тема Автор Торрент Отв. Посл. сооб.
T Зарубежное кино [DVDRip, Low-Res HDRip, и т.д.] Восхождение Сокола / Falcon Rising (Эрни Барбараш) [2014 г., Боевик, Приключения, WEB-DLRip] VO (RUS, R.A.I.M.) Ведьмочка
3 | 0

0 | 812

38

28.09.2014 10:39

T Зарубежное кино [DVDRip, Low-Res HDRip, и т.д.] Восхождение Юпитер / Jupiter Ascending (Энди Вачовски, Лана Вачовски) [2015 г., фантастика, боевик, приключения, WEB-DLRip] Dub [iTunes] Паукан
46 | 0

0 | 1137

100

22.04.2015 10:49

T Зарубежное кино [DVDRip, Low-Res HDRip, и т.д.] Восхождение Юпитер / Jupiter Ascending (Энди Вачовски, Лана Вачовски) [2015 г., фантастика, боевик, приключения, WEB-DLRip] Dub [iTunes] Паукан
3 | 0

0 | 1104

111

22.04.2015 10:51

T Зарубежное кино [DVDRip, Low-Res HDRip, и т.д.] Восхождение Юпитер / Jupiter Ascending (Энди Вачовски / Andy Wachowski, Лана Вачовски / Lana Wachowski) [2014 г., фантастика, фэнтези, боевик, приключения, HDRip] Dub (iTunes) 90ytr90
206 | 1

1 | 783

72

15.05.2015 19:13

Зарубежное кино [DVDRip, Low-Res HDRip, и т.д.] Восхождение Юпитер / Jupiter Ascending (Энди Вачовски, Лана Вачовски) [2015 г., фантастика, боевик, приключения, HDRip] AVO [Юрий Живов] Паукан
24 | 0

0 | 611

20

30.08.2015 11:05

Зарубежное кино [DVDRip, Low-Res HDRip, и т.д.] Восхождение Крэйсов / The Rise of the Krays (Закари Адлер) [2015 г., криминал, HDRip] DVO makkol
7 | 0

0 | 552

57

28.11.2015 22:42

Зарубежное кино [DVDRip, Low-Res HDRip, и т.д.] Восхождение / The Climb / A Hero's Climb (Боб Свэм) [1997 г., драма, DVDRip] AVO (Сербин) + Original makkol
3 | 0

0 | 475

1

23.07.2016 11:12

BBC Восхождение женщины / The Ascent of Woman (1-4 серии из 4) / (Хьюго МакГрегор) [2015 г., документальный, история, археология, исследования, HDTVRip 720p] DVO + Original (Eng) ARI71
0 | 0

2 | 989

1

11.10.2016 11:23

Личности Восхождение Ларисы Шепитько (Нонна Бокарева) [2008 г., документальный, биография, киноведение, культура, SatRip] ARI71
1 | 0

0 | 246

1

05.11.2016 19:35

T Зарубежное кино [HDDVDRip / BDRip / WEB-DL / HDTV 1080/720р] Восхождение Сокола / Falcon Rising (Эрни Барбараш) [2014 г., Боевик, Приключения, WEB-DL 720p] VO (RUS, R.A.I.M.) + Original (ENG) + Subs (ENG) Ведьмочка
0 | 0

0 | 871

29

28.09.2014 10:44


Яндекс.Метрика powered by Sphinx


В Н И М А Н И Е
Сайт не распространяет и не хранит электронные версии произведений, а лишь бесплатно и без коммерческой выгоды (не требуя взамен платы,
SMS и т.д.) предоставляет доступ к создаваемому пользователями каталогу ссылок на торрент-файлы, которые содержат только списки хеш-сумм.
Убедительная просьба с жалобами обращаться напрямую к пользователю, разместившему торрент файл.

Вверх