Loading...
Error

Убей или умри / Kill or Be Killed (Дуан Грейвз, Джастин Микс) [2015 г., ужасы, триллер, детектив, вестерн, HDRip] VO

Статистика раздачи
Размер:  1,23 GB   |    Зарегистрирован:  8 месяцев   |    Скачан:  22 раза

Полного источника не было: 2 часа 27 минут

Сидов:  0  |  0 KB/s  ]   Личеров:  0  |  0 KB/s  ]

* - сиды/пиры с внешних источников

   
 
Автор Сообщение

makkol Пол:Муж

25-Мар-2016 15:31

Убей или умри / Kill or Be Killed


Год выпуска: 2015
Жанр: ужасы, триллер, детектив, вестерн
Производство: США [Greeks Productions, Red on Yella, Through Films]
Режиссер: Дуан Грейвз, Джастин Микс
В ролях: Джастин Микс, Пол МакКарти-Бойингтон, Грег Келли, Н’Даба Дивайн, Бриджер Задина, Ларри Харбин, Эрианн Мартин, Стивен Хартли, Люче Рэйнс Тимоти Т. МакКинни, Эдвин Нил, Майкл Берриман, Пепе Серна
Сюжет фильма:
Осенью 1900 года бандит Клод Барби Сладкоежка решает привести в исполнение свой план по «уходу на пенсию», пытаясь провести свою банду через Техас, направляясь за спрятанными после неудачного ограбления деньгами. Но в дороге бандиты начинают умирать странной смертью и путь за деньгами становится лихорадочной гонкой на выживание.

  • Мировая премьера: 10 апреля 2015


Качество видео: HDRip

Продолжительность: 01:43:42
Формат: AVI
Видео: XviD, 720x304 (2.35:1), 23.976 fps, 1496 kbps
Аудио: русский, любительский одноголосый закадровый (Хихикающий доктор), MP3 2.0, 44.1 kHz, 192 kbps

Код:

Формат                                   : AVI
Формат/Информация                        : Audio Video Interleave
Размер файла                             : 1,23 Гбайт
Продолжительность                        : 1 ч. 43 м.
Общий поток                              : 1698 Кбит/сек
Программа кодирования                    : VirtualDubMod 1.5.10.3 (build 2550/release)
Библиотека кодирования                   : VirtualDubMod build 2550/release

Видео
Идентификатор                            : 0
Формат                                   : MPEG-4 Visual
Профиль формата                          : Advanced Simple@L5
Параметр BVOP формата                    : 2
Параметр QPel формата                    : Нет
Параметр GMC формата                     : Без точки перехода
Параметр матрицы формата                 : Default (H.263)
Режим смешивания                         : Сжатый битовый поток
Идентификатор кодека                     : XVID
Идентификатор кодека/Подсказка           : XviD
Продолжительность                        : 1 ч. 43 м.
Битрейт                                  : 1496 Кбит/сек
Ширина                                   : 720 пикселей
Высота                                   : 304 пикселя
Соотношение сторон                       : 2,35:1
Частота кадров                           : 23,976 (23976/1000) кадра/сек
Цветовое пространство                    : YUV
Субдискретизация насыщенности            : 4:2:0
Битовая глубина                          : 8 бит
Тип развёртки                            : Прогрессивная
Метод сжатия                             : С потерями
Бит/(Пиксели*Кадры)                      : 0.285
Размер потока                            : 1,08 Гбайт (88%)
Библиотека кодирования                   : XviD 66

Аудио
Идентификатор                            : 1
Формат                                   : MPEG Audio
Версия формата                           : Version 1
Профиль формата                          : Layer 3
Идентификатор кодека                     : 55
Идентификатор кодека/Подсказка           : MP3
Продолжительность                        : 1 ч. 43 м.
Вид битрейта                             : Постоянный
Битрейт                                  : 192 Кбит/сек
Каналы                                   : 2 канала
Частота                                  : 44,1 КГц
Метод сжатия                             : С потерями
Размер потока                            : 142 Мбайт (11%)
Выравнивание                             : Разделение по промежуткам
Продолжительность промежутка             : 42  мс. (1,00 видеокадр)
Время предзагрузки промежутка            : 500  мс.
picpicpicpicpic
Для увеличения картинки щелкните мышкой по превью

Этот торрент недоступен для скачивания без регистрации, однако доступен по публичной magnet-ссылке (источники с публичных трекеров). Перед использованием ссылки прочтите, пожалуйста Пользовательское соглашение, а также как можно дольше оставайтесь на раздаче! Для того, чтобы скачать сам торрент-файл (который видит больше источников), а также для того, чтобы поблагодарить релизера, вам необходимо зарегистрироваться. Если регистрироваться лень - вы можете также попробовать скачать релиз по нашим партнерским ссылкам ниже.

[underverse.su].t64637.torrent
Трекер: Зарегистрирован   [ 25.03.2016 15:31 ]  

Статус: проверено (by makkol at 25.03.2016 23:41)
Поблагодарили: пока никто не поблагодарил...
Тип торрента: публичный - доступные источники с открытых трекеров: 
Размер: 1,23 GB (занимает 0,28 DVDR, для записи нужно 1 болванка DVDR/RW)
 
 

Яндекс.Метрика powered by Sphinx


В Н И М А Н И Е
Сайт не распространяет и не хранит электронные версии произведений, а лишь бесплатно и без коммерческой выгоды (не требуя взамен платы,
SMS и т.д.) предоставляет доступ к создаваемому пользователями каталогу ссылок на торрент-файлы, которые содержат только списки хеш-сумм.
Убедительная просьба с жалобами обращаться напрямую к пользователю, разместившему торрент файл.

Вверх