Loading...
Error

Дикий Египет / Wild Egypt [2015 г., документальный, познавательный, фауна, флора, HDTVRip 720p] Dub + Original

Статистика раздачи
Размер:  1,6 GB   |    Зарегистрирован:  8 месяцев   |    Скачан:  15 раз

Полного источника не было: 3 дня

Сидов:  0  |  0 KB/s  ]   Личеров:  0  |  0 KB/s  ]

* - сиды/пиры с внешних источников

   
 
Автор Сообщение

ARI71 Пол:Муж

25-Мар-2016 11:18

Дикий Египет / Wild Egypt


Год выпуска: 2015
Жанр: документальный, познавательный, фауна, флора
Страна: США
Производство: National Geographic Television
Студия: Off the Fence of Blue Ant Media
Продолжительность: 00:44:00
Перевод: русский, (дублированный)
Режиссер: Эллен Уиндемут
Сюжет фильма:
Узнайте больше о пустыне Египта, где дождь - настоящая редкость, и чтобы поддерживать там жизнь, нужно нечто поистине особенное.
Качество видео: HDTVRip 720p

Формат: MKV
Видео: x264, 1280х720, 4800 Кбит/с.
Аудио #1: MP2, 192 Кбит/с, 48 kHz, 2 ch (русский)
Аудио #2: MP2, 192 Кбит/с, 48 kHz, 2 ch (английский)

Доп. инфо о переводе: Студия "Велес" (Дмитрий Стрелков)

Код:

Общее
Уникальный идентификатор : 217170152995274741323375946301139030974 (0xA3617337A9521930A42972EEE84F93BE)
Полное имя : D:\Wild Egypt HDTVRip-720p.2015.mkv
Формат : Matroska
Версия формата : Version 4 / Version 2
Размер файла : 1,60 Гбайт
Продолжительность : 44 м.
Общий поток : 5187 Кбит/сек
Дата кодирования : UTC 2016-03-22 08:57:57
Программа кодирования : mkvmerge v8.3.0 ('Over the Horizon') 64bit
Библиотека кодирования : libebml v1.3.1 + libmatroska v1.4.2
DURATION : 00:44:02.112000000
NUMBER_OF_FRAMES : 110088
NUMBER_OF_BYTES : 63410688
_STATISTICS_WRITING_APP : mkvmerge v8.3.0 ('Over the Horizon') 64bit
_STATISTICS_WRITING_DATE_UTC : 2016-03-22 08:57:57
_STATISTICS_TAGS : BPS DURATION NUMBER_OF_FRAMES NUMBER_OF_BYTES

Видео
Идентификатор : 1
Формат : AVC
Формат/Информация : Advanced Video Codec
Профиль формата : High@L4.1
Параметр CABAC формата : Да
Параметр ReFrames формата : 7 кадров
Идентификатор кодека : V_MPEG4/ISO/AVC
Продолжительность : 44 м.
Битрейт : 4800 Кбит/сек
Ширина : 1280 пикселей
Высота : 720 пикселей
Соотношение сторон : 16:9
Режим частоты кадров : Постоянный
Частота кадров : 25,000 кадров/сек
Цветовое пространство : YUV
Субдискретизация насыщенности : 4:2:0
Битовая глубина : 8 бит
Тип развёртки : Прогрессивная
Бит/(Пиксели*Кадры) : 0.208
Размер потока : 1,45 Гбайт (91%)
Библиотека кодирования : x264 core 148 r2638 7599210
Настройки программы : cabac=1 / ref=7 / deblock=1:0:0 / analyse=0x3:0x113 / me=umh / subme=9 / psy=1 / psy_rd=1.05:0.05 / mixed_ref=1 / me_range=32 / chroma_me=1 / trellis=2 / 8x8dct=1 / cqm=0 / deadzone=21,11 / fast_pskip=1 / chroma_qp_offset=-3 / threads=6 / lookahead_threads=1 / sliced_threads=0 / nr=0 / decimate=1 / interlaced=0 / bluray_compat=0 / constrained_intra=0 / bframes=10 / b_pyramid=2 / b_adapt=2 / b_bias=0 / direct=3 / weightb=1 / open_gop=0 / weightp=2 / keyint=250 / keyint_min=25 / scenecut=40 / intra_refresh=0 / rc_lookahead=60 / rc=2pass / mbtree=1 / bitrate=4800 / ratetol=1.0 / qcomp=0.60 / qpmin=0 / qpmax=69 / qpstep=4 / cplxblur=20.0 / qblur=0.5 / ip_ratio=1.40 / aq=1:1.00
Default : Да
Forced : Нет

Аудио #1
Идентификатор : 2
Формат : MPEG Audio
Версия формата : Version 1
Профиль формата : Layer 2
Идентификатор кодека : A_MPEG/L2
Идентификатор кодека/Подсказка : MP2
Продолжительность : 44 м.
Вид битрейта : Постоянный
Битрейт : 192 Кбит/сек
Каналы : 2 канала
Частота : 48,0 КГц
Метод сжатия : С потерями
Размер потока : 60,5 Мбайт (4%)
Заголовок : Студия "Велес"
Язык : Russian
Default : Да
Forced : Нет

Аудио #2
Идентификатор : 3
Формат : MPEG Audio
Версия формата : Version 1
Профиль формата : Layer 2
Идентификатор кодека : A_MPEG/L2
Идентификатор кодека/Подсказка : MP2
Продолжительность : 44 м.
Вид битрейта : Постоянный
Битрейт : 192 Кбит/сек
Каналы : 2 канала
Частота : 48,0 КГц
Метод сжатия : С потерями
Размер потока : 60,5 Мбайт (4%)
Заголовок : Original
Язык : English
Default : Нет
Forced : Нет
picpicpicpicpic
Для увеличения картинки щелкните мышкой по превью

Этот торрент недоступен для скачивания без регистрации, однако доступен по публичной magnet-ссылке (источники с публичных трекеров). Перед использованием ссылки прочтите, пожалуйста Пользовательское соглашение, а также как можно дольше оставайтесь на раздаче! Для того, чтобы скачать сам торрент-файл (который видит больше источников), а также для того, чтобы поблагодарить релизера, вам необходимо зарегистрироваться. Если регистрироваться лень - вы можете также попробовать скачать релиз по нашим партнерским ссылкам ниже.

[underverse.su].t64627.torrent
Трекер: Зарегистрирован   [ 25.03.2016 11:18 ]  

Статус: проверено (by makkol at 25.03.2016 11:41)
Поблагодарили: 1 человек
Тип торрента: публичный - доступные источники с открытых трекеров: 
Размер: 1,6 GB (занимает 0,36 DVDR, для записи нужно 1 болванка DVDR/RW)
 
 
Похожие темы
Форум Тема Автор Торрент Отв. Посл. сооб.
National Geographic Дикий Египет / Wild Egypt [2015 г., документальный, познавательный, флора. фауна, HDTVRip] Dub ARI71
1 | 0

0 | 715

12

25.03.2016 18:46


Яндекс.Метрика powered by Sphinx


В Н И М А Н И Е
Сайт не распространяет и не хранит электронные версии произведений, а лишь бесплатно и без коммерческой выгоды (не требуя взамен платы,
SMS и т.д.) предоставляет доступ к создаваемому пользователями каталогу ссылок на торрент-файлы, которые содержат только списки хеш-сумм.
Убедительная просьба с жалобами обращаться напрямую к пользователю, разместившему торрент файл.

Вверх