Loading...
Error

Дикие острова: Невиданные острова / Unseen Islands (1-2 серии из 2) [2015 г., документальный, флора, фауна, HDTVRip] VO

Статистика раздачи
Размер:  999 MB   |    Зарегистрирован:  8 месяцев   |    Скачан:  4 раза

Полного источника не было: 3 месяца 8 дней

Сидов:  0  |  0 KB/s  ]   Личеров:  0  |  0 KB/s  ]

* - сиды/пиры с внешних источников

   
 
Автор Сообщение

ARI71 Пол:Муж

23-Мар-2016 14:05

Дикие острова: Невиданные острова / Unseen Islands (1-2 серии из 2)


Год выпуска: 2015
Жанр: документальный, флора, фауна
Страна: США
Студия: Warenhouse 51 Productions & Redfern Natural History Productions
Продолжительность: 2x ~ 00:44:00
Режиссер: Стюарт МакПерсон
Сюжет фильма:
До ближайшего населённого пункта тысячи километров. Эти скалы, разбросанные по семи морям, в числе самых удалённых мест на Земле. Но жизнь здесь кипит. Город пингвинов по населению не уступает Вашингтону, океан вокруг полон жизни. Края с жестокими нравами, где безобидные птицы становятся кровопийцами. Берега, на которых заканчиваются кругосветные путешествия и начинается новая жизнь. У этих островов есть кое-что общее, всё это британские заморские территории. Их жизнь до сих пор остаётся тайной. Давайте отправимся в путешествие и вместе мы раскроем секреты природы этих островов. Мы пройдём через южную Атлантику от ледяных пустынь Антарктиды к экватору. Побываем на островах известных лишь немногим.
Качество видео: HDTVRip

Формат: AVI
Видео: XviD, 720x400, ~1386 kbps
Аудио: русский, одноголосый закадровый (профессиональный), AC3 2.0, ~192.00 kbps
(тех. данные всех серий идентичны)
01. Атлантический ковчег
На британских территориях можно встретить дроздов, черепах с чуткой ориентацией в пространстве и разных уникальных морских птиц.

02. Частицы рая
Посетите нетронутые земли архипелага Чагос и познакомьтесь с рыбой-попугаем, огромными крабами и ярко-голубой ящерицей.
Документальный дубляж (Велес):
Голос рассказчика - полный дубляж
Интервью - слышна оригинальная речь

Текст читает Олег Белов

Код:

Общее
Полное имя : D:\Dikie.ostrova.2015.HDTVRip.[Один 777]\01.Atlanticheskij.kovcheg.avi
Формат : AVI
Формат/Информация : Audio Video Interleave
Размер файла : 500 Мбайт
Продолжительность : 43 м.
Общий поток : 1588 Кбит/сек
Программа кодирования : VirtualDubMod 1.5.10.3 | www.virtualdub-fr.org || (build 2550/release)
Библиотека кодирования : VirtualDubMod build 2550/release

Видео
Идентификатор : 0
Формат : MPEG-4 Visual
Профиль формата : Advanced Simple@L5
Параметр BVOP формата : 1
Параметр QPel формата : Нет
Параметр GMC формата : Без точки перехода
Параметр матрицы формата : Default (H.263)
Идентификатор кодека : XVID
Идентификатор кодека/Подсказка : XviD
Продолжительность : 43 м.
Битрейт : 1386 Кбит/сек
Ширина : 720 пикселей
Высота : 400 пикселей
Соотношение сторон : 16:9
Частота кадров : 25,000 кадров/сек
Цветовое пространство : YUV
Субдискретизация насыщенности : 4:2:0
Битовая глубина : 8 бит
Тип развёртки : Прогрессивная
Метод сжатия : С потерями
Бит/(Пиксели*Кадры) : 0.193
Размер потока : 436 Мбайт (87%)
Библиотека кодирования : XviD 73

Аудио
Идентификатор : 1
Формат : AC-3
Формат/Информация : Audio Coding 3
Расширение режима : CM (complete main)
Параметр Endianness формата : Big
Идентификатор кодека : 2000
Продолжительность : 43 м.
Вид битрейта : Постоянный
Битрейт : 192 Кбит/сек
Каналы : 2 канала
Расположение каналов : Front: L R
Частота : 48,0 КГц
Метод сжатия : С потерями
Размер потока : 60,4 Мбайт (12%)
Выравнивание : Разделение по промежуткам
Продолжительность промежутка : 40 мс. (1,00 видеокадр)
Время предзагрузки промежутка : 500 мс.
picpicpicpicpic
Для увеличения картинки щелкните мышкой по превью

Этот торрент недоступен для скачивания без регистрации, однако доступен по публичной magnet-ссылке (источники с публичных трекеров). Перед использованием ссылки прочтите, пожалуйста Пользовательское соглашение, а также как можно дольше оставайтесь на раздаче! Для того, чтобы скачать сам торрент-файл (который видит больше источников), а также для того, чтобы поблагодарить релизера, вам необходимо зарегистрироваться. Если регистрироваться лень - вы можете также попробовать скачать релиз по нашим партнерским ссылкам ниже.

[underverse.su].t64583.torrent
Трекер: Зарегистрирован   [ 23.03.2016 14:05 ]  

Статус: проверено (by makkol at 23.03.2016 14:31)
Поблагодарили: пока никто не поблагодарил...
Тип торрента: публичный - доступные источники с открытых трекеров: 
Размер: 999 MB (занимает 0,22 DVDR, для записи нужно 1 болванка DVDR/RW)
 
 

Яндекс.Метрика powered by Sphinx


В Н И М А Н И Е
Сайт не распространяет и не хранит электронные версии произведений, а лишь бесплатно и без коммерческой выгоды (не требуя взамен платы,
SMS и т.д.) предоставляет доступ к создаваемому пользователями каталогу ссылок на торрент-файлы, которые содержат только списки хеш-сумм.
Убедительная просьба с жалобами обращаться напрямую к пользователю, разместившему торрент файл.

Вверх