Loading...
Error

День выборов 2 (Александр Баршак) [2016 г., комедия, WEBRip]

Статистика раздачи
Размер:  1,37 GB   |    Зарегистрирован:  8 месяцев   |    Скачан:  47 раз

Полного источника не было: 12 часов

Сидов:  0  |  0 KB/s  ]   Личеров:  0  |  0 KB/s  ]

* - сиды/пиры с внешних источников

   
 
Автор Сообщение

makkol Пол:Муж

22-Мар-2016 10:35

День выборов 2


Год выпуска: 2016
Жанр: комедия
Производство: Россия [Квартет И, Стрела, Кедр Про]
Режиссер: Александр Баршак
В ролях: Леонид Барац, Ростислав Хаит, Александр Демидов, Камиль Ларин, Василий Уткин, Нонна Гришаева, Максим Виторган, Михаил Ефремов, Алексей Макаров, Алексей Кортнев
Сюжет фильма:
Игорь Цаплин будет избираться на третий срок, а поможет ему в этом уже знакомая зрителю команда пиарщиков.

  • Российская премьера: 18 февраля 2016


Качество видео: WEBRip

Продолжительность: 01:44:18
Формат: AVI
Видео: XviD, 720x304 (2.35:1), 25.000 fps, 1739 kbps
Аудио: русский, оригинал, AC3 2.0, 48 kHz, 128 kbps

Код:

Format                                   : AVI
Format/Info                              : Audio Video Interleave
File size                                : 1.37 GiB
Duration                                 : 1h 44mn
Overall bit rate                         : 1 877 Kbps
Writing application                      : VirtualDubMod 1.5.10.2 (build 2540/release)
Writing library                          : VirtualDubMod build 2540/release

Video
ID                                       : 0
Format                                   : MPEG-4 Visual
Format profile                           : Advanced Simple@L5
Format settings, BVOP                    : 2
Format settings, QPel                    : No
Format settings, GMC                     : No warppoints
Format settings, Matrix                  : Default (MPEG)
Codec ID                                 : XVID
Codec ID/Hint                            : XviD
Duration                                 : 1h 44mn
Bit rate                                 : 1 739 Kbps
Width                                    : 720 pixels
Height                                   : 304 pixels
Display aspect ratio                     : 2.35:1
Frame rate                               : 25.000 fps
Color space                              : YUV
Chroma subsampling                       : 4:2:0
Bit depth                                : 8 bits
Scan type                                : Progressive
Compression mode                         : Lossy
Bits/(Pixel*Frame)                       : 0.318
Stream size                              : 1.27 GiB (93%)
Writing library                          : XviD 1.2.1 (UTC 2008-12-04)

Audio
ID                                       : 1
Format                                   : AC-3
Format/Info                              : Audio Coding 3
Mode extension                           : CM (complete main)
Format settings, Endianness              : Big
Codec ID                                 : 2000
Duration                                 : 1h 44mn
Bit rate mode                            : Constant
Bit rate                                 : 128 Kbps
Channel(s)                               : 2 channels
Channel positions                        : Front: L R
Sampling rate                            : 48.0 KHz
Bit depth                                : 16 bits
Compression mode                         : Lossy
Stream size                              : 95.6 MiB (7%)
Alignment                                : Split accross interleaves
Interleave, duration                     : 40 ms (1.00 video frame)
Interleave, preload duration             : 500 ms
Внимание! Присутствуют вставки голосовой и текстовой рекламы


picpicpicpicpic
Для увеличения картинки щелкните мышкой по превью

Этот торрент недоступен для скачивания без регистрации, однако доступен по публичной magnet-ссылке (источники с публичных трекеров). Перед использованием ссылки прочтите, пожалуйста Пользовательское соглашение, а также как можно дольше оставайтесь на раздаче! Для того, чтобы скачать сам торрент-файл (который видит больше источников), а также для того, чтобы поблагодарить релизера, вам необходимо зарегистрироваться. Если регистрироваться лень - вы можете также попробовать скачать релиз по нашим партнерским ссылкам ниже.

[underverse.su].t64556.torrent
Трекер: Зарегистрирован   [ 22.03.2016 10:35 ]  

Статус: T временная (by makkol at 25.03.2016 00:02)
Поблагодарили: 2 человека
Тип торрента: публичный - доступные источники с открытых трекеров: 
Размер: 1,37 GB (занимает 0,31 DVDR, для записи нужно 1 болванка DVDR/RW)
 
 
Похожие темы
Форум Тема Автор Торрент Отв. Посл. сооб.
Наше кино [DVDRip, Low-Res HDRip, и т.д.] День выборов [полная версия] (Олег Фомин) [2007 г., комедия, TVRip] garry
16 | 0

0 | 2651

98

16.08.2012 20:10

T Наше кино [DVDRip, Low-Res HDRip, и т.д.] День выборов 2 (Александр Баршак) [2016 г., комедия, WEB-DLRip] makkol
471 | 6

0 | 704

93

24.03.2016 23:34

Наше кино [DVD / HDDVD / BD / Remux] День выборов (Олег Фомин) [2007 г.,комедия, DVD-9] Bratok
0 | 0

2 | 1919

1

28.02.2010 09:56

T Наше кино [HDDVDRip / BDRip / WEB-DL / HDTV 1080/720р] День выборов 2 (Александр Баршак) [2016 г., комедия, WEBRip 720p] makkol
150 | 0

1 | 832

97

22.03.2016 16:06

T Наше кино [HDDVDRip / BDRip / WEB-DL / HDTV 1080/720р] День выборов 2 (Александр Баршак) [2016 г., комедия, WEB-DL 1080p] makkol
742 | 1

0 | 870

99

24.03.2016 23:47

T Наше кино [HDDVDRip / BDRip / WEB-DL / HDTV 1080/720р] День выборов 2 (Александр Баршак) [2016 г., комедия, WEB-DL 720p] makkol
195 | 2

0 | 684

51

25.03.2016 12:48

T Новинки кино [CAMRip, TS, DVDScr, WP, TC] День выборов 2 (Александр Баршак) [2016 г., комедия, CAMRip] makkol
2 | 0

1 | 1758

139

02.03.2016 08:57


Яндекс.Метрика powered by Sphinx


В Н И М А Н И Е
Сайт не распространяет и не хранит электронные версии произведений, а лишь бесплатно и без коммерческой выгоды (не требуя взамен платы,
SMS и т.д.) предоставляет доступ к создаваемому пользователями каталогу ссылок на торрент-файлы, которые содержат только списки хеш-сумм.
Убедительная просьба с жалобами обращаться напрямую к пользователю, разместившему торрент файл.

Вверх