Loading...
Error

Легенды Крыма. Райский полуостров [2015 г., документальный, познавательный, природа, DVB]

Статистика раздачи
Размер:  555 MB   |    Зарегистрирован:  8 месяцев   |    Скачан:  23 раза

Полного источника не было: 10 часов

Сидов:  0  |  0 KB/s  ]   Личеров:  0  |  0 KB/s  ]

* - сиды/пиры с внешних источников

   
 
Автор Сообщение

ARI71 Пол:Муж

21-Мар-2016 15:06

Легенды Крыма. Райский полуостров
Год выпуска: 2015
Жанр: документальный, познавательный, природа
Страна: Россия
Студия: ООО "ЭсКаСи"
Продолжительность: 00:25:51
Сюжет фильма:
Крымский природный заповедник - один из самых интересных и живописных уголков Крыма. Здесь более тысячи видов растений, причём некоторые встречаются только в Крыму - клен Стевена, крымский эдельвейс и другие. В заповеднике встречаются деревья гигантских размеров, сосны в возрасте 300-400 лет, дубы, у которых окружность ствола превышает 5 метров. Заповедник является аккумулятором пресной воды, которая накапливается на яйлах и питает источники и крымские реки. А главный его обитатель - олень, которого можно увидеть своими глазами в естественной среде.
Качество видео: DVB

Формат: MPEG-TS
Видео: AVC, 720х576, ~2661 kbps
Аудио: русский, (оригинал), MP2 2.0, ~192.00 kbps

Код:

Общее
Идентификатор : 0 (0x0)
Полное имя : D:\Легенды.Крыма.Райский.полуостров.кэп.mts
Формат : MPEG-TS
Размер файла : 555 Мбайт
Продолжительность : 25 м.
Режим общего битрейта : Переменный
Общий поток : 3003 Кбит/сек

Видео
Идентификатор : 301 (0x12D)
Идентификатор меню : 1 (0x1)
Формат : AVC
Формат/Информация : Advanced Video Codec
Профиль формата : Main@L3
Параметр CABAC формата : Да
Параметр ReFrames формата : 3 кадра
Параметр GOP формата : M=4, N=28
Идентификатор кодека : 27
Продолжительность : 25 м.
Битрейт : 2661 Кбит/сек
Ширина : 720 пикселей
Высота : 576 пикселей
Соотношение сторон : 16:9
Частота кадров : 25,000 кадров/сек
Стандарт вещания : Component
Цветовое пространство : YUV
Субдискретизация насыщенности : 4:2:0
Битовая глубина : 8 бит
Тип развёртки : Чересстрочная
Порядок развёртки : Верхнее поле первое
Бит/(Пиксели*Кадры) : 0.257
Размер потока : 492 Мбайт (89%)
Цветовой диапазон : Limited
Основные цвета : BT.601 PAL
Характеристики трансфера : BT.470 System B, BT.470 System G
Коэффициенты матрицы : BT.601

Аудио
Идентификатор : 302 (0x12E)
Идентификатор меню : 1 (0x1)
Формат : MPEG Audio
Версия формата : Version 1
Профиль формата : Layer 2
Идентификатор кодека : 3
Продолжительность : 25 м.
Вид битрейта : Постоянный
Битрейт : 192 Кбит/сек
Каналы : 2 канала
Частота : 48,0 КГц
Метод сжатия : С потерями
Размер потока : 35,5 Мбайт (6%)
picpicpicpicpic
Для увеличения картинки щелкните мышкой по превью

Этот торрент недоступен для скачивания без регистрации, однако доступен по публичной magnet-ссылке (источники с публичных трекеров). Перед использованием ссылки прочтите, пожалуйста Пользовательское соглашение, а также как можно дольше оставайтесь на раздаче! Для того, чтобы скачать сам торрент-файл (который видит больше источников), а также для того, чтобы поблагодарить релизера, вам необходимо зарегистрироваться. Если регистрироваться лень - вы можете также попробовать скачать релиз по нашим партнерским ссылкам ниже.

[underverse.su].t64540.torrent
Трекер: Зарегистрирован   [ 21.03.2016 15:06 ]  

Статус: проверено (by makkol at 21.03.2016 16:09)
Поблагодарили: пока никто не поблагодарил...
Тип торрента: публичный - доступные источники с открытых трекеров: 
Размер: 555 MB (занимает 0,12 DVDR, для записи нужно 1 болванка DVDR/RW)
 
 

Яндекс.Метрика powered by Sphinx


В Н И М А Н И Е
Сайт не распространяет и не хранит электронные версии произведений, а лишь бесплатно и без коммерческой выгоды (не требуя взамен платы,
SMS и т.д.) предоставляет доступ к создаваемому пользователями каталогу ссылок на торрент-файлы, которые содержат только списки хеш-сумм.
Убедительная просьба с жалобами обращаться напрямую к пользователю, разместившему торрент файл.

Вверх