Loading...
Error

Путешествие в царство зверей. Бурные воды реки Эльба / Expeditionen ins Tierreich. Die Elbe (1-2 серия из 2) [2014 г., документальный, природа, флора, фауна, SatRip] VO

Статистика раздачи
Размер:  1,33 GB   |    Зарегистрирован:  8 месяцев   |    Скачан:  5 раз

Полного источника не было: 1 месяц 8 дней

Сидов:  0  |  0 KB/s  ]   Личеров:  0  |  0 KB/s  ]

* - сиды/пиры с внешних источников

   
 
Автор Сообщение

ARI71 Пол:Муж

21-Мар-2016 11:53

Путешествие в царство зверей. Бурные воды реки Эльба / Expeditionen ins Tierreich. Die Elbe (1-2 серия из 2)


Год выпуска: 2014
Жанр: документальный, природа, флора, фауна
Страна: Германия
Студия: NDR / Naturfilm
Продолжительность: 2 x ~ 00:44:15
Режиссер: Ральф Шейке
Сюжет фильма:
Мы отправимся в удивительное путешествие по реке Эльба, которая пролегает через Чехию и Германию и считается одной из главных водных артерий Центральной Европы. Истоки Эльбы образуются множеством ключей и потоков, низвергающихся с гребня Исполиновых гор. Мы увидим многочисленные долины, замки, различные города и села, которые простираются вдоль реки, которая протянулась на 1100 км. Побережье Эльбы практически не затронуто человеком, поэтому оно славится многообразием животного мира.
Качество видео: SatRip

Формат: AVI
Видео: DivX 5, 720x400, ~1956 kbps
Аудио: русский, одноголосый (профессиональный), AC3 2.0, ~192.00 kbps
(тех. данные всех серий идентичны)
01. От Исполиновых гор до саксонской Швейцарии
02. От саксонской Швейцарии до Ваттового моря

Код:

Общее
Полное имя : D:\Di Elbe\02_Von Sachsen zum Wattenmeer.avi
Формат : AVI
Формат/Информация : Audio Video Interleave
Размер файла : 684 Мбайт
Продолжительность : 44 м.
Общий поток : 2158 Кбит/сек
Программа кодирования : VirtualDubMod 1.5.10.3 | www.virtualdub-fr.org || (build 2550/release)
Библиотека кодирования : VirtualDubMod build 2550/release

Видео
Идентификатор : 0
Формат : MPEG-4 Visual
Профиль формата : Advanced Simple@L5
Параметр BVOP формата : 1
Параметр QPel формата : Нет
Параметр GMC формата : Без точки перехода
Параметр матрицы формата : Default (MPEG)
Идентификатор кодека : DX50
Идентификатор кодека/Подсказка : DivX 5
Продолжительность : 44 м.
Битрейт : 1956 Кбит/сек
Ширина : 720 пикселей
Высота : 400 пикселей
Соотношение сторон : 16:9
Частота кадров : 25,000 кадров/сек
Цветовое пространство : YUV
Субдискретизация насыщенности : 4:2:0
Битовая глубина : 8 бит
Тип развёртки : Прогрессивная
Метод сжатия : С потерями
Бит/(Пиксели*Кадры) : 0.272
Размер потока : 620 Мбайт (91%)
Библиотека кодирования : XviD 1.2.1 (UTC 2008-12-04)

Аудио
Идентификатор : 1
Формат : AC-3
Формат/Информация : Audio Coding 3
Расширение режима : CM (complete main)
Параметр Endianness формата : Big
Идентификатор кодека : 2000
Продолжительность : 44 м.
Вид битрейта : Постоянный
Битрейт : 192 Кбит/сек
Каналы : 2 канала
Расположение каналов : Front: L R
Частота : 48,0 КГц
Метод сжатия : С потерями
Размер потока : 60,9 Мбайт (9%)
Выравнивание : Разделение по промежуткам
Продолжительность промежутка : 40 мс. (1,00 видеокадр)
Время предзагрузки промежутка : 500 мс.
Релиз группы:

picpicpicpicpic
Для увеличения картинки щелкните мышкой по превью

Этот торрент недоступен для скачивания без регистрации, однако доступен по публичной magnet-ссылке (источники с публичных трекеров). Перед использованием ссылки прочтите, пожалуйста Пользовательское соглашение, а также как можно дольше оставайтесь на раздаче! Для того, чтобы скачать сам торрент-файл (который видит больше источников), а также для того, чтобы поблагодарить релизера, вам необходимо зарегистрироваться. Если регистрироваться лень - вы можете также попробовать скачать релиз по нашим партнерским ссылкам ниже.

[underverse.su].t64536.torrent
Трекер: Зарегистрирован   [ 21.03.2016 11:53 ]  

Статус: проверено (by makkol at 21.03.2016 16:05)
Поблагодарили: пока никто не поблагодарил...
Тип торрента: публичный - доступные источники с открытых трекеров: 
Размер: 1,33 GB (занимает 0,3 DVDR, для записи нужно 1 болванка DVDR/RW)
 
 
Похожие темы
Форум Тема Автор Торрент Отв. Посл. сооб.
Зарубежное кино [DVDRip, Low-Res HDRip, и т.д.] Путешествия Гулливера / Gulliver's Travels (Роб Леттерман) [2010 г., фэнтези, комедия, приключения, BDRip] Dub garry
8 | 0

0 | 530

5

18.12.2012 20:28

Зарубежное кино [DVDRip, Low-Res HDRip, и т.д.] Путешествие на Запад: Покорение демонов / Journey to the West: Conquering the Demons (Чи-Кин Квок) [2013 г., фэнтези, комедия, приключения, HDRip] DVO 90ytr90
1 | 0

2 | 1642

59

24.03.2013 09:44

Зарубежное кино [DVDRip, Low-Res HDRip, и т.д.] Путешествие к Рождественской звезде / Reisen til julestjernen (Нильс Гауп) [2012 г., фэнтези, приключения, семейный, HDRip] MVO + Original 90ytr90
151 | 4

0 | 518

16

18.12.2013 05:31

T Зарубежное кино [DVDRip, Low-Res HDRip, и т.д.] Путешествие Гектора в поисках счастья / Hector and the Search for Happiness (Питер Челсом / Peter Chelsom) [2014 г., драма, комедия, приключения, WEBRip] Dub (чистый звук) 90ytr90
1 | 0

0 | 774

35

02.01.2015 07:58

T Зарубежное кино [DVDRip, Low-Res HDRip, и т.д.] Путешествие Гектора в поисках счастья / Hector and the Search for Happiness (Питер Челсом / Peter Chelsom) [2014 г., драма, комедия, приключения, WEBRip] Dub (чистый звук) 90ytr90
1 | 0

0 | 655

16

03.01.2015 15:11

T Зарубежное кино [DVDRip, Low-Res HDRip, и т.д.] Путешествие Гектора в поисках счастья / Hector and the Search for Happiness (Питер Челсом / Peter Chelsom) [2014 г., драма, комедия, приключения, BDRip-AVC] Dub + Original (Eng) 90ytr90
4 | 0

1 | 476

16

04.03.2015 19:15

T Зарубежное кино [DVDRip, Low-Res HDRip, и т.д.] Путешествие Гектора в поисках счастья / Hector and the Search for Happiness (Питер Челсом / Peter Chelsom) [2014 г., драма, комедия, приключения, HDRip] Dub (iTunes) 90ytr90
15 | 1

0 | 613

11

22.02.2015 10:06

T Зарубежное кино [DVDRip, Low-Res HDRip, и т.д.] Путешествие Гектора в поисках счастья / Hector and the Search for Happiness (Питер Челсом / Peter Chelsom) [2014 г., драма, комедия, приключения, HDRip] Dub (iTunes) 90ytr90
7 | 0

0 | 571

8

22.02.2015 10:10

Зарубежное кино [DVDRip, Low-Res HDRip, и т.д.] Путешествие к маяку / La traversee du phare (Терри Redler) [1999 г., драма, DVDRip] VO + Original + Subs makkol
5 | 0

0 | 745

4

11.08.2015 12:11

Зарубежное кино [DVDRip, Low-Res HDRip, и т.д.] Путешествие из Парижа / Paris-Willouby (Артур Делер / Arthur Delaire, Квентин Рейно / Quentin Reynaud) [2015 г., комедия, WEB-DLRip] MVO (официальный звук) 90ytr90
205 | 1

0 | 560

15

29.05.2016 19:53


Яндекс.Метрика powered by Sphinx


В Н И М А Н И Е
Сайт не распространяет и не хранит электронные версии произведений, а лишь бесплатно и без коммерческой выгоды (не требуя взамен платы,
SMS и т.д.) предоставляет доступ к создаваемому пользователями каталогу ссылок на торрент-файлы, которые содержат только списки хеш-сумм.
Убедительная просьба с жалобами обращаться напрямую к пользователю, разместившему торрент файл.

Вверх