Loading...
Error

Discovery. Не пытайтесь повторить / You have been warned (3 сезон: 1-9 серии из 9) [2015 г., документальный, юмор, экстрим, HDTVRip] VO

Статистика раздачи
Размер:  4,78 GB   |    Зарегистрирован:  6 месяцев   |    Скачан:  0 раз

Полного источника не было: 2 месяца 24 дня

Сидов:  0  |  0 KB/s  ]   Личеров:  0  |  0 KB/s  ]

* - сиды/пиры с внешних источников

   
 
Автор Сообщение

ARI71 Пол:Муж

21-Мар-2016 10:42

Discovery. Не пытайтесь повторить / You have been warned (3 сезон: 1-9 серии из 9)


Год выпуска: 2015
Жанр: документальный, юмор, экстрим
Страна: США
Производство: Discovery Channel
Продолжительность: 9 х 00:44:00
Режиссер: Эндрю Каппеллетти
Ведущий: Гарет Корник
Сюжет фильма:
Программа «Не пытайтесь повторить» показывает 20 лучших роликов, выложенных на YouTube, на которых запечатлены научные эксперименты, поставленные в домашних условиях. В каждой серии создатели программы демонстрируют умный, смешной или просто странный видео сюжет, а потом ведущие ученые разбирают его в деталях и объясняют суть. Вместе с ними зрители совершат ряд открытий из области биологии, физики или химии, которые лежат в основе этих опытов. Вы увидите летательный аппарат, работающий на мускульной силе и созданный в Канаде, встретитесь с исследователями космоса из Великобритании, познакомитесь с девушками из США и Новой Зеландии, которые умеют говорить задом наперед, а также услышите рок-группу, где играют роботы! Для этой программы было отобрано только самое лучшее - от экспериментов, которые люди ставят сами на себе, до головокружительных каскадерских трюков.
Качество видео: HDTVRip

Формат: AVI
Видео: XviD, 720x400, ~1539 kbps
Аудио: русский, одноголосый закадровый (профессиональный), AC3 2.0, ~192.00 kbps
(тех. данные всех серий идентичны)

Код:

Общее
Полное имя : D:\Не пытайтесь повторить GeneralFilm\01 Не пытайтесь повторить GeneralFilm.avi
Формат : AVI
Формат/Информация : Audio Video Interleave
Размер файла : 528 Мбайт
Продолжительность : 42 м.
Общий поток : 1743 Кбит/сек
Программа кодирования : VirtualDubMod 1.5.10.3 | www.virtualdub-fr.org || (build 2550/release)
Библиотека кодирования : VirtualDubMod build 2550/release

Видео
Идентификатор : 0
Формат : MPEG-4 Visual
Профиль формата : Advanced Simple@L5
Параметр BVOP формата : 1
Параметр QPel формата : Нет
Параметр GMC формата : Без точки перехода
Параметр матрицы формата : Выборочная
Идентификатор кодека : XVID
Идентификатор кодека/Подсказка : XviD
Продолжительность : 42 м.
Битрейт : 1539 Кбит/сек
Ширина : 720 пикселей
Высота : 400 пикселей
Соотношение сторон : 16:9
Частота кадров : 30,000 кадров/сек
Цветовое пространство : YUV
Субдискретизация насыщенности : 4:2:0
Битовая глубина : 8 бит
Тип развёртки : Прогрессивная
Метод сжатия : С потерями
Бит/(Пиксели*Кадры) : 0.178
Размер потока : 466 Мбайт (88%)
Библиотека кодирования : XviD 73

Аудио
Идентификатор : 1
Формат : AC-3
Формат/Информация : Audio Coding 3
Расширение режима : CM (complete main)
Параметр Endianness формата : Big
Идентификатор кодека : 2000
Продолжительность : 42 м.
Вид битрейта : Постоянный
Битрейт : 192 Кбит/сек
Каналы : 2 канала
Расположение каналов : Front: L R
Частота : 48,0 КГц
Метод сжатия : С потерями
Размер потока : 58,2 Мбайт (11%)
Выравнивание : Разделение по промежуткам
Продолжительность промежутка : 33 мс. (1,00 видеокадр)
Время предзагрузки промежутка : 500 мс.
Внимание! Раздача ведётся путём добавления новых серий; при каждом добавлении создfётся новый торрент. Чтобы начать докачку новой серии, пользователям необходимо сделать следующее: (1) остановить скачивание, (2) удалить старый торрент у себя из клиента (старые серии удалять не надо), (3) скачать новый торрент и запустить его у себя в клиенте вместо старого, при этом указать клиенту путь в старую папку куда и должно происходить скачивание новых серий.

Ваш клиент при этом должен произвести хеширование (проверку) старой папки (если не производит сам - помогите ему сделать это), и будет докачивать только те серии которых у вас ещё нет. Старые серии при этом не удаляются, а продолжают раздаваться!

Eсли вы уже удалили старые серии, то предотвратить повторную закачку старых серий можно, отжав галочку в соответсвующих местах при запуске нового торрента.
01. Как босс.
02. В самом деле?
03. Человек против природы.
04. Эпичные навыки.
05. Дикая езда.
06. Мозг против мышц.
07. Убийственные изобретения.
08. "Рукалицо".
09. Шок и слава.
picpicpicpicpic
Для увеличения картинки щелкните мышкой по превью

Этот торрент недоступен для скачивания без регистрации, однако доступен по публичной magnet-ссылке (источники с публичных трекеров). Перед использованием ссылки прочтите, пожалуйста Пользовательское соглашение, а также как можно дольше оставайтесь на раздаче! Для того, чтобы скачать сам торрент-файл (который видит больше источников), а также для того, чтобы поблагодарить релизера, вам необходимо зарегистрироваться. Если регистрироваться лень - вы можете также попробовать скачать релиз по нашим партнерским ссылкам ниже.

[underverse.su].t66516.torrent
Трекер: Зарегистрирован   [ 23.05.2016 18:30 ]  

Статус: проверено (by makkol at 23.05.2016 22:55)
Поблагодарили: 2 человека
Тип торрента: публичный - доступные источники с открытых трекеров: 
Размер: 4,78 GB (занимает 1,09 DVDR, для записи нужно 2 болванки DVDR/RW)
 
 
Похожие темы
Форум Тема Автор Торрент Отв. Посл. сооб.
Discovery Discovery. Под властью роботов / Discovery. When Robots Rule [2014 г., Документальный, научно-популярный, познавательный, HDTVRip] Dub Станислав Карбанович
1 | 0

0 | 468

9

10.09.2015 13:28

T Discovery Discovery. Голые и напуганные / Naked and Afraid [04x01-04 из 13] [2015 г., Документальный, реалити-шоу, экстрим, HDTVRip] MVO ultarasbarcelona
1 | 0

0 | 759

11

17.11.2015 11:41



Последний раз редактировалось: ARI71 (23.05.2016 18:30), всего редактировалось 15 раз(а)

ARI71 Пол:Муж

28-Мар-2016 08:09

Добавлена последняя 9-я серия 3-го сезона данного сериала. Обновите торрент-файл!

Яндекс.Метрика powered by Sphinx


В Н И М А Н И Е
Сайт не распространяет и не хранит электронные версии произведений, а лишь бесплатно и без коммерческой выгоды (не требуя взамен платы,
SMS и т.д.) предоставляет доступ к создаваемому пользователями каталогу ссылок на торрент-файлы, которые содержат только списки хеш-сумм.
Убедительная просьба с жалобами обращаться напрямую к пользователю, разместившему торрент файл.

Вверх