Loading...
Error

В ожидании / Awaiting (Марк Мерфи) [2015 г., ужасы, триллер, HDRip] VO

Статистика раздачи
Размер:  1,22 GB   |    Зарегистрирован:  8 месяцев   |    Скачан:  10 раз
Сидов:  1  |  0 KB/s  ]   Личеров:  0  |  0 KB/s  ]

* - сиды/пиры с внешних источников

   
 
Автор Сообщение

makkol Пол:Муж

21-Мар-2016 10:31

В ожидании / Awaiting


Год выпуска: 2015
Жанр: ужасы, триллер
Производство: Великобритания [Green Screen Productions, GSP Studios, Solar Productions]
Режиссер: Марк Мерфи
В ролях: Тони Кёрран, Диана Викерс, Руперт Хилл, Питер Вудворд, Адриан Буше, Чарли МакДугалл, Софи Ловелл Андерсон
Сюжет фильма:
Моррис - человек-отшельник, имеющий психологические отклонения, чья жизнь меняется, когда его невинная дочь Лорен влюбляется в одну из его жертв и начинает дружить с ним. Джейк, обычный бизнесмен, вскоре понимает, что он «попал» и его присутствие в доме постепенно раскрывает неожиданные и темные тайны из прошлого.

  • Мировая премьера: 1 марта 2015


Качество видео: HDRip

Продолжительность: 01:34:13
Формат: AVI
Видео: XviD, 720x304 (2.35:1), 24.000 fps, 1692 kbps
Аудио: русский, любительский одноголосый закадровый (Хихикающий доктор), MP3 2.0, 44.1 kHz, 192 kbps

Код:

Формат                                   : AVI
Формат/Информация                        : Audio Video Interleave
Размер файла                             : 1,19 Гбайт
Продолжительность                        : 1 ч. 30 м.
Общий поток                              : 1894 Кбит/сек
Программа кодирования                    : VirtualDubMod 1.5.10.3 (build 2550/release)
Библиотека кодирования                   : VirtualDub build 35491/release

Видео
Идентификатор                            : 0
Формат                                   : MPEG-4 Visual
Профиль формата                          : Advanced Simple@L5
Параметр BVOP формата                    : 2
Параметр QPel формата                    : Нет
Параметр GMC формата                     : Без точки перехода
Параметр матрицы формата                 : Default (H.263)
Режим смешивания                         : Сжатый битовый поток
Идентификатор кодека                     : XVID
Идентификатор кодека/Подсказка           : XviD
Продолжительность                        : 1 ч. 30 м.
Битрейт                                  : 1692 Кбит/сек
Ширина                                   : 720 пикселей
Высота                                   : 304 пикселя
Соотношение сторон                       : 2,35:1
Частота кадров                           : 24,000 кадра/сек
Цветовое пространство                    : YUV
Субдискретизация насыщенности            : 4:2:0
Битовая глубина                          : 8 бит
Тип развёртки                            : Прогрессивная
Метод сжатия                             : С потерями
Бит/(Пиксели*Кадры)                      : 0.322
Размер потока                            : 1,06 Гбайт (89%)
Библиотека кодирования                   : XviD 66

Аудио
Идентификатор                            : 1
Формат                                   : MPEG Audio
Версия формата                           : Version 1
Профиль формата                          : Layer 3
Идентификатор кодека                     : 55
Идентификатор кодека/Подсказка           : MP3
Продолжительность                        : 1 ч. 30 м.
Вид битрейта                             : Постоянный
Битрейт                                  : 192 Кбит/сек
Каналы                                   : 2 канала
Частота                                  : 44,1 КГц
Метод сжатия                             : С потерями
Задержка видео                           : 1 мс.
Размер потока                            : 124 Мбайт (10%)
Выравнивание                             : Разделение по промежуткам
Продолжительность промежутка             : 42  мс. (1,00 видеокадр)
Время предзагрузки промежутка            : 500  мс.
picpicpicpicpic
Для увеличения картинки щелкните мышкой по превью

Этот торрент недоступен для скачивания без регистрации, однако доступен по публичной magnet-ссылке (источники с публичных трекеров). Перед использованием ссылки прочтите, пожалуйста Пользовательское соглашение, а также как можно дольше оставайтесь на раздаче! Для того, чтобы скачать сам торрент-файл (который видит больше источников), а также для того, чтобы поблагодарить релизера, вам необходимо зарегистрироваться. Если регистрироваться лень - вы можете также попробовать скачать релиз по нашим партнерским ссылкам ниже.

[underverse.su].t64532.torrent
Трекер: Зарегистрирован   [ 21.03.2016 10:31 ]  

Статус: проверено (by makkol at 25.03.2016 16:16)
Поблагодарили: 1 человек
Тип торрента: публичный - доступные источники с открытых трекеров: 
Размер: 1,22 GB (занимает 0,28 DVDR, для записи нужно 1 болванка DVDR/RW)
 
 
Похожие темы
Форум Тема Автор Торрент Отв. Посл. сооб.
Зарубежное кино [DVDRip, Low-Res HDRip, и т.д.] В ожидании вечности / Waiting for Forever (Джеймс Кич) [2010 г., драма, мелодрама, HDRip] eXtatik
0 | 0

1 | 576

1

26.06.2011 13:56

Зарубежное кино [DVDRip, Low-Res HDRip, и т.д.] В ожидании дождя / Cekani na dest (Карел Кахиня) [1978 г., драма, мелодрама, TVRip] VO + Original + Subs makkol
9 | 0

0 | 504

1

28.02.2016 11:30

Зарубежное кино [HDDVDRip / BDRip / WEB-DL / HDTV 1080/720р] В ожидании / Awaiting (Марк Мерфи ) [2015 г., ужасы, триллер, WEB-DL 720p] VO + Original makkol
1 | 0

0 | 586

2

21.03.2016 10:38

Архив В ожидании… / Still Waiting... (Джефф Балис) [2009 г., комедия, DVDRip] Shursh
0 | 0

5 | 1151

32

05.11.2011 14:44


Яндекс.Метрика powered by Sphinx


В Н И М А Н И Е
Сайт не распространяет и не хранит электронные версии произведений, а лишь бесплатно и без коммерческой выгоды (не требуя взамен платы,
SMS и т.д.) предоставляет доступ к создаваемому пользователями каталогу ссылок на торрент-файлы, которые содержат только списки хеш-сумм.
Убедительная просьба с жалобами обращаться напрямую к пользователю, разместившему торрент файл.

Вверх