Loading...
Error

Атлантика: Самый необузданный океан на Земле / Atlantic: The Wildest Ocean on Earth (1 сезон: 1-2 серии из 3) [2015 г., документальный, флора, фауна, океан, HDRip] DVO

Статистика раздачи
Размер:  1,6 GB   |    Зарегистрирован:  8 месяцев   |    Скачан:  11 раз

Полного источника не было: 7 дней

Сидов:  0  |  0 KB/s  ]   Личеров:  0  |  0 KB/s  ]

* - сиды/пиры с внешних источников

   
 
Автор Сообщение

ARI71 Пол:Муж

20-Мар-2016 16:54

Атлантика: Самый необузданный океан на Земле / Atlantic: The Wildest Ocean on Earth (1 сезон: 1-2 серии из 3)


Год выпуска: 2015
Жанр: документальный, флора, фауна, океан
Страна: Великобритания
Производство: BBC Natural History
Продолжительность: 2 x ~ 00:58:00
Сюжет фильма:
Из-за мощных течений, жестоких ураганов и подводных вулканов Атлантический океан невероятно богат и разнообразен, но выжить, приняв его вызов, в нём очень не просто. Новый документальный фильм BBC рассказывает о самом необузданном из всех океанов планеты Земля.


Качество видео: HDRip

Формат: AVI
Видео: XviD, 720x400, ~1894 kbps
Аудио: русский, двухголосый закадровый (профессиональный), AC3 2.0, ~192.00 kbps
(тех. данные всех серий идентичны)

(Доп. информация: ведётся обновляемая раздача)
Перевод: Константин Кривоногов
Монтаж и сведение звука: Михаил Шорыгин
Озвучание: Владимир Курдов, Татьяна Манетина, Наталья Ланц
1. Течение жизни
2. Глубоководные горы

Код:

Общее
Полное имя : D:\Atlantic.HDRip.AlexFilm\Atlantic.1.01.HDRip.AlexFilm.avi
Формат : AVI
Формат/Информация : Audio Video Interleave
Размер файла : 889 Мбайт
Продолжительность : 59 м.
Общий поток : 2095 Кбит/сек
Программа кодирования : VirtualDubMod 1.5.10.3 | www.virtualdub-fr.org || (build 2550/release)
Библиотека кодирования : VirtualDubMod build 2550/release

Видео
Идентификатор : 0
Формат : MPEG-4 Visual
Профиль формата : Advanced Simple@L5
Параметр BVOP формата : 1
Параметр QPel формата : Нет
Параметр GMC формата : Без точки перехода
Параметр матрицы формата : Default (H.263)
Идентификатор кодека : XVID
Идентификатор кодека/Подсказка : XviD
Продолжительность : 59 м.
Битрейт : 1894 Кбит/сек
Ширина : 720 пикселей
Высота : 400 пикселей
Соотношение сторон : 16:9
Частота кадров : 25,000 кадров/сек
Цветовое пространство : YUV
Субдискретизация насыщенности : 4:2:0
Битовая глубина : 8 бит
Тип развёртки : Прогрессивная
Метод сжатия : С потерями
Бит/(Пиксели*Кадры) : 0.263
Размер потока : 803 Мбайт (90%)
Библиотека кодирования : XviD 1.2.1 (UTC 2008-12-04)

Аудио
Идентификатор : 1
Формат : AC-3
Формат/Информация : Audio Coding 3
Расширение режима : CM (complete main)
Параметр Endianness формата : Big
Идентификатор кодека : 2000
Продолжительность : 59 м.
Вид битрейта : Постоянный
Битрейт : 192 Кбит/сек
Каналы : 2 канала
Расположение каналов : Front: L R
Частота : 48,0 КГц
Метод сжатия : С потерями
Размер потока : 81,5 Мбайт (9%)
Выравнивание : Разделение по промежуткам
Продолжительность промежутка : 40 мс. (1,00 видеокадр)
Время предзагрузки промежутка : 500 мс.
Релиз группы:

picpicpicpicpic
Для увеличения картинки щелкните мышкой по превью

Этот торрент недоступен для скачивания без регистрации, однако доступен по публичной magnet-ссылке (источники с публичных трекеров). Перед использованием ссылки прочтите, пожалуйста Пользовательское соглашение, а также как можно дольше оставайтесь на раздаче! Для того, чтобы скачать сам торрент-файл (который видит больше источников), а также для того, чтобы поблагодарить релизера, вам необходимо зарегистрироваться. Если регистрироваться лень - вы можете также попробовать скачать релиз по нашим партнерским ссылкам ниже.

[underverse.su].t64510.torrent
Трекер: Зарегистрирован   [ 20.03.2016 16:54 ]  

Статус: T временная (by makkol at 20.03.2016 17:52)
Поблагодарили: пока никто не поблагодарил...
Тип торрента: публичный - доступные источники с открытых трекеров: 
Размер: 1,6 GB (занимает 0,36 DVDR, для записи нужно 1 болванка DVDR/RW)
 
 

Яндекс.Метрика powered by Sphinx


В Н И М А Н И Е
Сайт не распространяет и не хранит электронные версии произведений, а лишь бесплатно и без коммерческой выгоды (не требуя взамен платы,
SMS и т.д.) предоставляет доступ к создаваемому пользователями каталогу ссылок на торрент-файлы, которые содержат только списки хеш-сумм.
Убедительная просьба с жалобами обращаться напрямую к пользователю, разместившему торрент файл.

Вверх