Loading...
Error

Ошибка времени / Замедленная съемка / Time Lapse (Брэдли Кинг) [2014 г., фантастика, триллер, HDRip] MVO (Line)

Статистика раздачи
Размер:  1,46 GB   |    Зарегистрирован:  8 месяцев   |    Скачан:  60 раз
Сидов:  2  |  0 KB/s  ]   Личеров:  0  |  0 KB/s  ]

* - сиды/пиры с внешних источников

   
 
Автор Сообщение

makkol Пол:Муж

20-Мар-2016 12:02

Ошибка времени / Замедленная съемка / Time Lapse
«Время не обмануть»


Год выпуска: 2014
Жанр: фантастика, триллер
Производство: США [Uncooperative Pictures]
Режиссер: Брэдли Кинг
В ролях: Даниэль Панабэйкер, Мэтью О Лири, Джордж Финн, Эймин Джозеф, Джейсон Спайсэк, Дэвид Фильоли, Шэрон Мофан, Джудит Дрэйк, Марк С. Хэнсон
Сюжет фильма:
Трое приятелей - подающий надежды художник и по совместительству управдом Финн, его девушка официантка и писательница Кэлли и их друг Джаспер, помешанный на собачьих гонках, - находят в комнате соседа-ученого странное изобретение - машину, печатающую фотографии из будущего дня. Теперь Джаспер знает, на каких собак нужно ставить, и Финн и Кэлли могут, наконец, посвятить себя любимым занятиям. Но вскоре визуальные пророчества загадочной машины начинают обескураживать и пугать героев...

  • Мировая премьера: 19 апреля 2014
  • Российская премьера: 3 марта 2016


Качество видео: HDRip

Продолжительность: 01:44:08
Формат: AVI
Видео: XviD, 720x400 (16:9), 23.976 fps, 1802 kbps
Аудио: русский, профессиональный многоголосый закадровый (официальный звук), AC3 2.0, 48 kHz, 192 kbps

Код:

Format : AVI
Format/Info : Audio Video Interleave
File size : 1.46 GiB
Duration : 1h 44mn
Overall bit rate : 2 003 Kbps
Writing application : VirtualDubMod 1.5.10.2 (build 2540/release)
Writing library : VirtualDubMod build 2540/release

Video #0
ID : 0
Format : MPEG-4 Visual
Format profile : Advanced Simple@L5
Format settings, BVOP : 2
Format settings, QPel : No
Format settings, GMC : No warppoints
Format settings, Matrix : Custom
Codec ID : XVID
Codec ID/Hint : XviD
Duration : 1h 44mn
Bit rate : 1 802 Kbps
Width : 720 pixels
Height : 400 pixels
Display aspect ratio : 16:9
Frame rate : 23.976 fps
Color space : YUV
Chroma subsampling : 4:2:0
Bit depth : 8 bits
Scan type : Progressive
Compression mode : Lossy
Bits/(Pixel*Frame) : 0.261
Stream size : 1.31 GiB (90%)
Writing library : XviD 1.2.1 (UTC 2008-12-04)

Audio #1
ID : 1
Format : AC-3
Format/Info : Audio Coding 3
Mode extension : CM (complete main)
Format settings, Endianness : Big
Codec ID : 2000
Duration : 1h 44mn
Bit rate mode : Constant
Bit rate : 192 Kbps
Channel(s) : 2 channels
Channel positions : Front: L R
Sampling rate : 48.0 KHz
Bit depth : 16 bits
Compression mode : Lossy
Stream size : 143 MiB (10%)
Alignment : Split accross interleaves
Interleave, duration : 42 ms (1.00 video frame)
Interleave, preload duration : 500 ms
picpicpicpicpic
Для увеличения картинки щелкните мышкой по превью

Этот торрент недоступен для скачивания без регистрации, однако доступен по публичной magnet-ссылке (источники с публичных трекеров). Перед использованием ссылки прочтите, пожалуйста Пользовательское соглашение, а также как можно дольше оставайтесь на раздаче! Для того, чтобы скачать сам торрент-файл (который видит больше источников), а также для того, чтобы поблагодарить релизера, вам необходимо зарегистрироваться. Если регистрироваться лень - вы можете также попробовать скачать релиз по нашим партнерским ссылкам ниже.

[underverse.su].t64502.torrent
Трекер: Зарегистрирован   [ 20.03.2016 12:02 ]  

Статус: T временная (by makkol at 24.03.2016 23:55)
Поблагодарили: 2 человека
Тип торрента: публичный - доступные источники с открытых трекеров: 
Размер: 1,46 GB (занимает 1/3 DVDR, для записи нужно 1 болванка DVDR/RW)
 
 
Похожие темы
Форум Тема Автор Торрент Отв. Посл. сооб.
Зарубежное кино [DVDRip, Low-Res HDRip, и т.д.] Ошибка времени / Time Lapse (Брэдли Кинг) [2015 г., фантастика, триллер, WEB-DLRip] DVO [RAIM & GUGU] Паукан
2 | 0

0 | 1248

111

20.01.2015 16:42

# Зарубежное кино [DVDRip, Low-Res HDRip, и т.д.] Ошибка времени / Time Lapse (Брэдли Кинг / Bradley King) [2014 г., фантастика, триллер, WEB-DLRip] DVO (RAIM & GUGU) + Original (Eng) 90ytr90
4 | 0

1 | 746

31

30.01.2015 14:40

Зарубежное кино [HDDVDRip / BDRip / WEB-DL / HDTV 1080/720р] Ошибка времени / Time Lapse (Брэдли Кинг / Bradley King) [2014 г., фантастика, триллер, WEB-DL 720p] DVO (RAIM & GUGU) + Original (Eng) 90ytr90
1 | 0

0 | 787

36

26.01.2015 11:12

T Зарубежное кино [HDDVDRip / BDRip / WEB-DL / HDTV 1080/720р] Ошибка времени / Замедленная съемка / Time Lapse (Брэдли Кинг) [2014 г., фантастика, триллер, BDRip 720p] MVO (Line) + Original makkol
30 | 2

0 | 872

28

20.03.2016 12:12


Яндекс.Метрика powered by Sphinx


В Н И М А Н И Е
Сайт не распространяет и не хранит электронные версии произведений, а лишь бесплатно и без коммерческой выгоды (не требуя взамен платы,
SMS и т.д.) предоставляет доступ к создаваемому пользователями каталогу ссылок на торрент-файлы, которые содержат только списки хеш-сумм.
Убедительная просьба с жалобами обращаться напрямую к пользователю, разместившему торрент файл.

Вверх