Loading...
Error

Пустынная бухта / Hollow Creek (Гусела Моро) [2016 г., триллер, криминал, детектив, WEB-DLRip] DVO

Статистика раздачи
Размер:  1,39 GB   |    Зарегистрирован:  8 месяцев   |    Скачан:  16 раз

Полного источника не было: 3 месяца 18 дней

Сидов:  0  |  0 KB/s  ]   Личеров:  0  |  0 KB/s  ]

* - сиды/пиры с внешних источников

   
 
Автор Сообщение

makkol Пол:Муж

20-Мар-2016 11:25

Пустынная бухта / Hollow Creek


Год выпуска: 2016
Жанр: триллер, криминал, детектив
Производство: США [Newfoundland Films, First Edge Films]
Режиссер: Гусела Моро
В ролях: Стив Дарон, Гусела Моро, Берт Рейнолдс, Дэвид Осем, Тони Райхарт, Элин Дарне, Стив Альбертс, Демия Элифф, Шэрон Бло
Сюжет фильма:
Нью-Йоркский писатель Блейк Блэкман, в поисках вдохновения и душевного спокойствия со своей возлюбленной Анжеликой, убегает из шумного города, чтобы уединится в уютном горном домике. По прибытию, он узнает по местному телевидению, что в горах пропали несколько детей, плюс ко всему, его собака ведет себя очень странно. В итоге романтическая поездка, превращается в кошмар, после того, как исчезает Анжелика, а Блейк становится главным подозреваемым в её пропаже...

  • Мировая премьера: 18 января 2016


Качество видео: WEB-DLRip

Продолжительность: 01:56:27
Формат: AVI
Видео: XviD, 720x400 (16:9), 23.976 fps, 1314 kbps
Аудио: русский, любительский двухголосый закадровый (Parovoz Production), AC3 2.0, 48 kHz, 384 kbps

Код:

Формат                                   : AVI
Формат/Информация                        : Audio Video Interleave
Размер файла                             : 1,39 Гбайт
Продолжительность                        : 1 ч. 56 м.
Общий поток                              : 1707 Кбит/сек
Программа кодирования                    : VirtualDubMod 1.5.10.2 (build 2542/release)
Библиотека кодирования                   : VirtualDubMod build 2542/release

Видео
Идентификатор                            : 0
Формат                                   : MPEG-4 Visual
Профиль формата                          : Advanced Simple@L5
Параметр BVOP формата                    : 2
Параметр QPel формата                    : Нет
Параметр GMC формата                     : Без точки перехода
Параметр матрицы формата                 : Default (H.263)
Режим смешивания                         : Сжатый битовый поток
Идентификатор кодека                     : XVID
Идентификатор кодека/Подсказка           : XviD
Продолжительность                        : 1 ч. 56 м.
Битрейт                                  : 1314 Кбит/сек
Ширина                                   : 720 пикселей
Высота                                   : 400 пикселей
Соотношение сторон                       : 16:9
Частота кадров                           : 23,976 кадра/сек
Цветовое пространство                    : YUV
Субдискретизация насыщенности            : 4:2:0
Битовая глубина                          : 8 бит
Тип развёртки                            : Прогрессивная
Метод сжатия                             : С потерями
Бит/(Пиксели*Кадры)                      : 0.190
Размер потока                            : 1,07 Гбайт (77%)
Библиотека кодирования                   : XviD 66

Аудио
Идентификатор                            : 1
Формат                                   : AC-3
Формат/Информация                        : Audio Coding 3
Расширение режима                        : CM (complete main)
Параметр Endianness формата              : Big
Идентификатор кодека                     : 2000
Продолжительность                        : 1 ч. 56 м.
Вид битрейта                             : Постоянный
Битрейт                                  : 384 Кбит/сек
Каналы                                   : 2 канала
Расположение каналов                     : Front: L R
Частота                                  : 48,0 КГц
Метод сжатия                             : С потерями
Размер потока                            : 320 Мбайт (22%)
Выравнивание                             : Разделение по промежуткам
Продолжительность промежутка             : 42  мс. (1,00 видеокадр)
Время предзагрузки промежутка            : 500  мс.
Релиз без рекламы


picpicpicpicpic
Для увеличения картинки щелкните мышкой по превью

Этот торрент недоступен для скачивания без регистрации, однако доступен по публичной magnet-ссылке (источники с публичных трекеров). Перед использованием ссылки прочтите, пожалуйста Пользовательское соглашение, а также как можно дольше оставайтесь на раздаче! Для того, чтобы скачать сам торрент-файл (который видит больше источников), а также для того, чтобы поблагодарить релизера, вам необходимо зарегистрироваться. Если регистрироваться лень - вы можете также попробовать скачать релиз по нашим партнерским ссылкам ниже.

[underverse.su].t64499.torrent
Трекер: Зарегистрирован   [ 20.03.2016 11:25 ]  

Статус: проверено (by makkol at 22.03.2016 23:52)
Поблагодарили: пока никто не поблагодарил...
Тип торрента: публичный - доступные источники с открытых трекеров: 
Размер: 1,39 GB (занимает 0,32 DVDR, для записи нужно 1 болванка DVDR/RW)
 
 
Похожие темы
Форум Тема Автор Торрент Отв. Посл. сооб.
Зарубежное кино [HDDVDRip / BDRip / WEB-DL / HDTV 1080/720р] Пустынная бухта / Hollow Creek (Гусела Моро) [2016 г., триллер, криминал, детектив, WEB-DL 720p] DVO + Original makkol
11 | 1

1 | 1183

12

22.03.2016 23:58

* Архив Пустынная крыса / Desert Punk / TV-series/ 1-24 из 24, (Инагаки Такаюки) [2004, Комедия, Приключения, Фантастика, Сёнэн, TVRip] gvg90

1 | 1764

30.08.2010 00:13


Яндекс.Метрика powered by Sphinx


В Н И М А Н И Е
Сайт не распространяет и не хранит электронные версии произведений, а лишь бесплатно и без коммерческой выгоды (не требуя взамен платы,
SMS и т.д.) предоставляет доступ к создаваемому пользователями каталогу ссылок на торрент-файлы, которые содержат только списки хеш-сумм.
Убедительная просьба с жалобами обращаться напрямую к пользователю, разместившему торрент файл.

Вверх