Loading...
Error

Анархисты / Les anarchistes (Эли Важеман) [2015 г., драма, WEB-DLRip] MVO

Статистика раздачи
Размер:  1,44 GB   |    Зарегистрирован:  8 месяцев   |    Скачан:  6 раз

Полного источника не было: 4 месяца 17 дней

Сидов:  0  |  0 KB/s  ]   Личеров:  0  |  0 KB/s  ]

* - сиды/пиры с внешних источников

   
 
Автор Сообщение

makkol Пол:Муж

18-Мар-2016 14:48

Анархисты / Les anarchistes


Год выпуска: 2015
Жанр: драма
Производство: Франция [24 Mai Productions, A Plus Image 5, Canal+ (fr)]
Режиссер: Эли Важеман
В ролях: Тахар Рахим, Адель Экзаркопулос, Сванн Арло, Гийом Гуи, Карим Леклу, Сара Лепикар, Седрик Кан, Эмили де Прессак, Аурелия Пурье, Одри Бонне
Сюжет фильма:
Париж, 1899 год. Выросший в нищете сирота, а ныне командир отделения жандармерии Жан Альбертини должен проникнуть в группу анархистов. Для него это реальная возможность подняться по карьерной лестнице. Но чем дальше, тем больше у него возникает сомнений. По мере того как Жан составляет полицеские рапорты на преступную группировку для своего начальника Гаспара, он сам начинает все больше симпатизировать им.

  • Мировая премьера: 15 мая 2015
  • Российская премьера: 25 февраля 2016


Качество видео: WEB-DLRip

Продолжительность: 01:41:12
Формат: AVI
Видео: XviD, 720x304 (2.35:1), 24.000 fps, 1776 kbps
Аудио: русский, профессиональный многоголосый закадровый (официальный звук), AC3 2.0, 48 kHz, 256 kbps

Код:

Формат                                   : AVI
Формат/Информация                        : Audio Video Interleave
Размер файла                             : 1,44 Гбайт
Продолжительность                        : 1 ч. 41 м.
Общий поток                              : 2042 Кбит/сек
Программа кодирования                    : VirtualDubMod 1.5.10.2 (build 2540/release)
Библиотека кодирования                   : VirtualDubMod build 2540/release

Видео
Идентификатор                            : 0
Формат                                   : MPEG-4 Visual
Профиль формата                          : Advanced Simple@L5
Параметр BVOP формата                    : 2
Параметр QPel формата                    : Нет
Параметр GMC формата                     : Без точки перехода
Параметр матрицы формата                 : Default (MPEG)
Идентификатор кодека                     : XVID
Идентификатор кодека/Подсказка           : XviD
Продолжительность                        : 1 ч. 41 м.
Битрейт                                  : 1776 Кбит/сек
Ширина                                   : 720 пикселей
Высота                                   : 304 пикселя
Соотношение сторон                       : 2,35:1
Частота кадров                           : 24,000 кадра/сек
Цветовое пространство                    : YUV
Субдискретизация насыщенности            : 4:2:0
Битовая глубина                          : 8 бит
Тип развёртки                            : Прогрессивная
Метод сжатия                             : С потерями
Бит/(Пиксели*Кадры)                      : 0.338
Размер потока                            : 1,26 Гбайт (87%)
Библиотека кодирования                   : XviD 1.2.1 (UTC 2008-12-04)

Аудио
Идентификатор                            : 1
Формат                                   : AC-3
Формат/Информация                        : Audio Coding 3
Расширение режима                        : CM (complete main)
Параметр Endianness формата              : Big
Идентификатор кодека                     : 2000
Продолжительность                        : 1 ч. 41 м.
Вид битрейта                             : Постоянный
Битрейт                                  : 256 Кбит/сек
Каналы                                   : 2 канала
Расположение каналов                     : Front: L R
Частота                                  : 48,0 КГц
Частота кадров                           : 31,250 кадров/сек (1536 spf)
Метод сжатия                             : С потерями
Размер потока                            : 185 Мбайт (13%)
Выравнивание                             : Разделение по промежуткам
Продолжительность промежутка             : 42  мс. (1,00 видеокадр)
Время предзагрузки промежутка            : 500  мс.
Внимание! Присутствуют вставки голосовой и текстовой рекламы


picpicpicpicpic
Для увеличения картинки щелкните мышкой по превью

Этот торрент недоступен для скачивания без регистрации, однако доступен по публичной magnet-ссылке (источники с публичных трекеров). Перед использованием ссылки прочтите, пожалуйста Пользовательское соглашение, а также как можно дольше оставайтесь на раздаче! Для того, чтобы скачать сам торрент-файл (который видит больше источников), а также для того, чтобы поблагодарить релизера, вам необходимо зарегистрироваться. Если регистрироваться лень - вы можете также попробовать скачать релиз по нашим партнерским ссылкам ниже.

[underverse.su].t64388.torrent
Трекер: Зарегистрирован   [ 18.03.2016 14:48 ]  

Статус: T временная (by makkol at 20.03.2016 23:43)
Поблагодарили: пока никто не поблагодарил...
Тип торрента: публичный - доступные источники с открытых трекеров: 
Размер: 1,44 GB (занимает 0,33 DVDR, для записи нужно 1 болванка DVDR/RW)
 
 
Похожие темы
Форум Тема Автор Торрент Отв. Посл. сооб.
T Зарубежное кино [HDDVDRip / BDRip / WEB-DL / HDTV 1080/720р] Анархисты / Les anarchistes (Эли Важеман) [2015 г., драма, WEB-DL 720p] MVO makkol
19 | 0

0 | 532

5

18.03.2016 14:59


Яндекс.Метрика powered by Sphinx


В Н И М А Н И Е
Сайт не распространяет и не хранит электронные версии произведений, а лишь бесплатно и без коммерческой выгоды (не требуя взамен платы,
SMS и т.д.) предоставляет доступ к создаваемому пользователями каталогу ссылок на торрент-файлы, которые содержат только списки хеш-сумм.
Убедительная просьба с жалобами обращаться напрямую к пользователю, разместившему торрент файл.

Вверх