Loading...
Error

Крупный улов / Catching Monsters (1-5 серия из 5) [2015 г., документальный, приключения, рыбалка, HDTVRip (720p)] Dub

Статистика раздачи
Размер:  6,43 GB   |    Зарегистрирован:  8 месяцев   |    Скачан:  2 раза

Полного источника не было: 2 дня 1 час

Сидов:  0  |  0 KB/s  ]   Личеров:  0  |  0 KB/s  ]

* - сиды/пиры с внешних источников

   
 
Автор Сообщение

ARI71 Пол:Муж

16-Мар-2016 12:44

Крупный улов / Catching Monsters (1-5 серия из 5)


Год выпуска: 2015
Жанр: документальный, приключения, рыбалка
Страна: США
Производство: Discovery Channel
Продолжительность: 5 x ~ 00:44:00
Сюжет фильма:
Каждую осень храбрая группа рыбаков оставляет своих близких и свои рабочие места. В течение шести недель, они будут преследовать монстров из глубокого океана. В них несгибаемая сила, чтобы бороться и побеждать в схватке с гигантским тунцом под 500 килограмм и стоимостью до 30 000 долларов.


Качество видео: HDTVRip (720p)

Формат: MKV
Видео: x264, 1280x720, ~ 4000 kbps
Аудио: русский, (дублированный), MP2, 2.0, ~192.00 kbps
01. Охота началась.
02. Золотая рыба.
03. Пан или пропал.
04. Последний рывок.
05. Последний гигантский тунец.

Код:

Общее
Уникальный идентификатор : 204585859590163778847441923527653722642 (0x99E9CDA6447762D16B32C223BCCC0A12)
Полное имя : D:\Крупный улов от 720p HitWay\01. Крупный улов от 720p HitWay.mkv
Формат : Matroska
Версия формата : Version 2
Размер файла : 1,29 Гбайт
Продолжительность : 43 м.
Режим общего битрейта : Постоянный
Общий поток : 4197 Кбит/сек
Программа кодирования : Lavf54.63.104
Библиотека кодирования : Lavf54.63.104

Видео
Идентификатор : 1
Формат : AVC
Формат/Информация : Advanced Video Codec
Профиль формата : High@L4.1
Параметр CABAC формата : Да
Параметр ReFrames формата : 3 кадра
Идентификатор кодека : V_MPEG4/ISO/AVC
Продолжительность : 43 м.
Вид битрейта : Постоянный
Битрейт : 4000 Кбит/сек
Ширина : 1280 пикселей
Высота : 720 пикселей
Соотношение сторон : 16:9
Режим частоты кадров : Постоянный
Частота кадров : 30,000 кадров/сек
Стандарт вещания : NTSC
Цветовое пространство : YUV
Субдискретизация насыщенности : 4:2:0
Битовая глубина : 8 бит
Тип развёртки : Прогрессивная
Бит/(Пиксели*Кадры) : 0.145
Размер потока : 1,20 Гбайт (93%)
Default : Нет
Forced : Нет
Цветовой диапазон : Limited
Основные цвета : BT.709
Характеристики трансфера : BT.709
Коэффициенты матрицы : BT.709

Аудио
Идентификатор : 2
Формат : MPEG Audio
Версия формата : Version 1
Профиль формата : Layer 2
Идентификатор кодека : A_MPEG/L2
Идентификатор кодека/Подсказка : MP2
Продолжительность : 43 м.
Вид битрейта : Постоянный
Битрейт : 192 Кбит/сек
Каналы : 2 канала
Частота : 48,0 КГц
Метод сжатия : С потерями
Задержка видео : -16 мс.
Размер потока : 60,3 Мбайт (5%)
Язык : English
Default : Да
Forced : Нет
Релиз группы:

picpicpicpicpic
Для увеличения картинки щелкните мышкой по превью

Этот торрент недоступен для скачивания без регистрации, однако доступен по публичной magnet-ссылке (источники с публичных трекеров). Перед использованием ссылки прочтите, пожалуйста Пользовательское соглашение, а также как можно дольше оставайтесь на раздаче! Для того, чтобы скачать сам торрент-файл (который видит больше источников), а также для того, чтобы поблагодарить релизера, вам необходимо зарегистрироваться. Если регистрироваться лень - вы можете также попробовать скачать релиз по нашим партнерским ссылкам ниже.

[underverse.su].t64312.torrent
Трекер: Зарегистрирован   [ 16.03.2016 12:44 ]  

Статус: проверено (by makkol at 16.03.2016 12:54)
Поблагодарили: пока никто не поблагодарил...
Тип торрента: публичный - доступные источники с открытых трекеров: 
Размер: 6,43 GB (занимает 1,47 DVDR, для записи нужно 2 болванки DVDR/RW)
 
 

Яндекс.Метрика powered by Sphinx


В Н И М А Н И Е
Сайт не распространяет и не хранит электронные версии произведений, а лишь бесплатно и без коммерческой выгоды (не требуя взамен платы,
SMS и т.д.) предоставляет доступ к создаваемому пользователями каталогу ссылок на торрент-файлы, которые содержат только списки хеш-сумм.
Убедительная просьба с жалобами обращаться напрямую к пользователю, разместившему торрент файл.

Вверх