Loading...
Error

Убийца / Sicario (Дени Вильнёв) [2015 г., боевик, триллер, драма, криминал, детектив, HDRip] Dub

Статистика раздачи
Размер:  1,46 GB   |    Зарегистрирован:  8 месяцев   |    Скачан:  14 раз

Полного источника не было: 2 месяца 11 дней

Сидов:  0  |  0 KB/s  ]   Личеров:  0  |  0 KB/s  ]

* - сиды/пиры с внешних источников

   
 
Автор Сообщение

makkol Пол:Муж

16-Мар-2016 10:54

Убийца / Sicario
«Границы условны. Возмездие реально.»


Год выпуска: 2015
Жанр: боевик, триллер, драма, криминал, детектив
Производство: США [Black Label Media, Lionsgate, Thunder Road]
Режиссер: Дени Вильнёв
В ролях: Эмили Блант, Бенисио Дель Торо, Джош Бролин, Виктор Гарбер, Джон Бернтал, Дэниэл Калуя, Джеффри Донован, Рауль Трухильо, Хулио Седильо, Хэнк Роджерсон
Сюжет фильма:
На американо-мексиканской границе женщина-полицейский сопровождает двух рейнджеров, которые преследуют наркобарона. Она не подозревает, что по ту сторону границы есть тайное место, где не действуют никакие законы и царят насилие и разврат.

  • Мировая премьера: 19 мая 2015
  • Российская премьера: 26 ноября 2015


Качество видео: HDRip

Продолжительность: 02:01:20
Формат: AVI
Видео: XviD, 720x304 (2.35:1), 23.976 fps, 1323 kbps
Аудио: русский, дублированный (iTunes), AC3 5.1, 48 kHz, 384 kbps

Код:

Формат                                   : AVI
Формат/Информация                        : Audio Video Interleave
Размер файла                             : 1,45 Гбайт
Продолжительность                        : 2 ч. 1 м.
Общий поток                              : 1716 Кбит/сек
Программа кодирования                    : VirtualDubMod 1.5.10.2 (build 2540/release)
Библиотека кодирования                   : VirtualDubMod build 2540/release

Видео
Идентификатор                            : 0
Формат                                   : MPEG-4 Visual
Профиль формата                          : Advanced Simple@L5
Параметр BVOP формата                    : 2
Параметр QPel формата                    : Нет
Параметр GMC формата                     : Без точки перехода
Параметр матрицы формата                 : Default (MPEG)
Идентификатор кодека                     : XVID
Идентификатор кодека/Подсказка           : XviD
Продолжительность                        : 2 ч. 1 м.
Битрейт                                  : 1323 Кбит/сек
Ширина                                   : 720 пикселей
Высота                                   : 304 пикселя
Соотношение сторон                       : 2,35:1
Частота кадров                           : 23,976 (24000/1001) кадра/сек
Цветовое пространство                    : YUV
Субдискретизация насыщенности            : 4:2:0
Битовая глубина                          : 8 бит
Тип развёртки                            : Прогрессивная
Метод сжатия                             : С потерями
Бит/(Пиксели*Кадры)                      : 0.252
Размер потока                            : 1,12 Гбайт (77%)
Библиотека кодирования                   : XviD 1.2.1 (UTC 2008-12-04)

Аудио
Идентификатор                            : 1
Формат                                   : AC-3
Формат/Информация                        : Audio Coding 3
Расширение режима                        : CM (complete main)
Параметр Endianness формата              : Big
Идентификатор кодека                     : 2000
Продолжительность                        : 2 ч. 1 м.
Вид битрейта                             : Постоянный
Битрейт                                  : 384 Кбит/сек
Каналы                                   : 6 каналов
Расположение каналов                     : Front: L C R, Side: L R, LFE
Частота                                  : 48,0 КГц
Частота кадров                           : 31,250 кадров/сек (1536 spf)
Метод сжатия                             : С потерями
Задержка видео                           : 2 с. 0 мс.
Размер потока                            : 333 Мбайт (22%)
Выравнивание                             : Разделение по промежуткам
Продолжительность промежутка             : 42  мс. (1,00 видеокадр)
Время предзагрузки промежутка            : 500  мс.
Релиз без рекламы!


picpicpicpicpic
Для увеличения картинки щелкните мышкой по превью

Этот торрент недоступен для скачивания без регистрации, однако доступен по публичной magnet-ссылке (источники с публичных трекеров). Перед использованием ссылки прочтите, пожалуйста Пользовательское соглашение, а также как можно дольше оставайтесь на раздаче! Для того, чтобы скачать сам торрент-файл (который видит больше источников), а также для того, чтобы поблагодарить релизера, вам необходимо зарегистрироваться. Если регистрироваться лень - вы можете также попробовать скачать релиз по нашим партнерским ссылкам ниже.

[underverse.su].t64308.torrent
Трекер: Зарегистрирован   [ 16.03.2016 10:54 ]  

Статус: T временная (by makkol at 17.03.2016 23:18)
Поблагодарили: пока никто не поблагодарил...
Тип торрента: публичный - доступные источники с открытых трекеров: 
Размер: 1,46 GB (занимает 1/3 DVDR, для записи нужно 1 болванка DVDR/RW)
 
 
Похожие темы
Форум Тема Автор Торрент Отв. Посл. сооб.
T Зарубежное кино [DVDRip, Low-Res HDRip, и т.д.] Убийца / Sicario (Дени Вильнёв) [2015 г., боевик, триллер, драма, криминал, детектив, HDRip] Dub + Original makkol
0 | 0

0 | 434

7

16.03.2016 11:04

T Зарубежное кино [DVDRip, Low-Res HDRip, и т.д.] Убийца / Sicario (Дени Вильнёв) [2015 г., боевик, триллер, драма, криминал, детектив, HDRip] Dub (Line) + Original makkol
29 | 0

0 | 764

80

24.12.2015 22:28

T Зарубежное кино [DVDRip, Low-Res HDRip, и т.д.] Убийца / Sicario (Дени Вильнёв / Denis Villeneuve) [2015 г., боевик, триллер, драма, криминал, детектив, HDRip] Dub/AVO (чистый звук) + AVO (Есарев, без цензуры) 90ytr90
30 | 1

0 | 621

26

09.01.2016 15:23

Зарубежное кино [DVDRip, Low-Res HDRip, и т.д.] Убийца / Sicario (Дени Вильнёв / Denis Villeneuve) [2015 г., боевик, триллер, драма, криминал, детектив, BDRip] AVO (Матвеев, без цензуры) 90ytr90
24 | 0

0 | 722

19

09.01.2016 16:03

Зарубежное кино [DVDRip, Low-Res HDRip, и т.д.] Убийца / Sicario (Дени Вильнёв / Denis Villeneuve) [2015 г., боевик, триллер, драма, криминал, детектив, BDRip-AVC] AVO (Есарев, цензурный) + Original (Eng) + Sub (Eng) 90ytr90
7 | 0

0 | 755

13

09.01.2016 16:39

T Зарубежное кино [DVDRip, Low-Res HDRip, и т.д.] Убийца / Sicario (Дени Вильнёв / Denis Villeneuve) [2015 г., боевик, триллер, драма, криминал, детектив, HDRip] Dub/AVO (чистый звук) 90ytr90
270 | 2

0 | 585

29

23.01.2016 12:37

Зарубежное кино [DVDRip, Low-Res HDRip, и т.д.] Убийца / Sicario (Дени Вильнёв / Denis Villeneuve) [2015 г., боевик, триллер, драма, криминал, детектив, НDRip] AVO (Есарев, без цензуры) 90ytr90
64 | 0

0 | 413

8

23.01.2016 14:00

T Зарубежное кино [DVDRip, Low-Res HDRip, и т.д.] Убийца / Sicario (Дени Вильнёв / Denis Villeneuve) [2015 г., боевик, триллер, драма, криминал, детектив, BDRip-AVC] Dub (iTunes) + Sub (Rus) 90ytr90
21 | 1

0 | 535

2

27.08.2016 06:56

T Зарубежное кино [DVDRip, Low-Res HDRip, и т.д.] Убийца / Sicario (Дени Вильнёв / Denis Villeneuve) [2015 г., боевик, триллер, драма, криминал, детектив, BDRip-AVC] Dub (iTunes) + Original (Eng) + Sub (Rus, Eng) 90ytr90
47 | 3

0 | 589

10

27.08.2016 07:13

Зарубежное кино HQ Убийца / Sicario (Дени Вильнёв / Denis Villeneuve) [2015 г., боевик, триллер, драма, криминал, детектив, BDRip] Rus Dub [iTunes] HQ Underverse HQ Underverse
3 | 0

0 | 871

9

22.06.2016 13:13


Яндекс.Метрика powered by Sphinx


В Н И М А Н И Е
Сайт не распространяет и не хранит электронные версии произведений, а лишь бесплатно и без коммерческой выгоды (не требуя взамен платы,
SMS и т.д.) предоставляет доступ к создаваемому пользователями каталогу ссылок на торрент-файлы, которые содержат только списки хеш-сумм.
Убедительная просьба с жалобами обращаться напрямую к пользователю, разместившему торрент файл.

Вверх