Loading...
Error

Прощание. (Трус, Балбес и Бывалый) [2016 г., документальный, биография, кинематограф, SatRip]

Статистика раздачи
Размер:  569 MB   |    Зарегистрирован:  8 месяцев   |    Скачан:  11 раз

Полного источника не было: 1 месяц 1 день

Сидов:  0  |  0 KB/s  ]   Личеров:  0  |  0 KB/s  ]

* - сиды/пиры с внешних источников

   
 
Автор Сообщение

ARI71 Пол:Муж

15-Мар-2016 21:03

Прощание. (Трус, Балбес и Бывалый)


Год выпуска: 2016
Жанр: документальный, биография, кинематограф
Страна: Россия
Продолжительность: 00:41:03
Режиссер: ТК "ТВЦ"
Сюжет фильма:
На похоронах Юрия Никулина Евгений Моргунов спросил мэра Москвы: "Где же Вы нас с Вициным хоронить будете?" И пояснил: "Люди приходят на кладбище, рыдают... И вдруг видят: рядышком лежат Трус, Балбес и Бывалый. Настроение сразу поднимается... Однако после смерти три артиста оказались на разных кладбищах Москвы, и прощались с ними по-разному: одному - кремлевские почести, другим - незаметное погребение...
Качество видео: SatRip

Формат: AVI
Видео: XviD, 704x448, ~1800 kbps
Аудио: русский, оригинал, MP3 2.0, ~128.00 kbps
Ю́рий Влади́мирович Нику́лин (18 декабря 1921, Демидов — 21 августа 1997, Москва) — советский и российский актёр, артист цирка (клоун), телеведущий. Участник Великой Отечественной войны. Народный артист СССР (1973). Герой Социалистического Труда (1990).

Гео́ргий Миха́йлович Ви́цин (5 [18] апреля 1917, Териоки — 22 октября 2001, Москва) — советский и российский актёр театра и кино. Народный артист СССР (1990)

Евге́ний Алекса́ндрович Моргуно́в (27 апреля 1927, Москва — 25 июня 1999, Москва) — советский и российский актёр, кинорежиссёр, Заслуженный артист РСФСР (1978). Наиболее известен по роли Бывалого из троицы Трус, Балбес и Бывалый в серии советских кинокомедий Леонида Гайдая.

Код:

Общее
Полное имя : D:\Proshhanie.Trus.Balbes.i.Byvalyj.2016.03.15.SATRip.[www.*другой трекер*].avi
Формат : AVI
Формат/Информация : Audio Video Interleave
Размер файла : 569 Мбайт
Продолжительность : 41 м.
Общий поток : 1938 Кбит/сек
Программа кодирования : VirtualDubMod 1.5.10.3 | www.virtualdub-fr.org || (build 2550/release)
Библиотека кодирования : VirtualDubMod build 2550/release

Видео
Идентификатор : 0
Формат : MPEG-4 Visual
Профиль формата : Advanced Simple@L5
Параметр BVOP формата : 2
Параметр QPel формата : Нет
Параметр GMC формата : Без точки перехода
Параметр матрицы формата : Default (H.263)
Идентификатор кодека : XVID
Идентификатор кодека/Подсказка : XviD
Продолжительность : 41 м.
Битрейт : 1800 Кбит/сек
Ширина : 704 пикселя
Высота : 448 пикселей
Соотношение сторон : 16:10
Частота кадров : 25,000 кадров/сек
Цветовое пространство : YUV
Субдискретизация насыщенности : 4:2:0
Битовая глубина : 8 бит
Тип развёртки : Прогрессивная
Метод сжатия : С потерями
Бит/(Пиксели*Кадры) : 0.228
Размер потока : 529 Мбайт (93%)
Библиотека кодирования : XviD 1.2.1 (UTC 2008-12-04)

Аудио
Идентификатор : 1
Формат : MPEG Audio
Версия формата : Version 1
Профиль формата : Layer 3
Идентификатор кодека : 55
Идентификатор кодека/Подсказка : MP3
Продолжительность : 41 м.
Вид битрейта : Постоянный
Битрейт : 128 Кбит/сек
Каналы : 2 канала
Частота : 48,0 КГц
Метод сжатия : С потерями
Размер потока : 37,6 Мбайт (7%)
Выравнивание : Соединение по промежуткам
Продолжительность промежутка : 40 мс. (1,00 видеокадр)
Время предзагрузки промежутка : 504 мс.
Библиотека кодирования : LAME3.99r
Настройки программы : -m s -V 4 -q 2 -lowpass 17 -b 128
Релиз группы:

picpicpicpic
Для увеличения картинки щелкните мышкой по превью

Этот торрент недоступен для скачивания без регистрации, однако доступен по публичной magnet-ссылке (источники с публичных трекеров). Перед использованием ссылки прочтите, пожалуйста Пользовательское соглашение, а также как можно дольше оставайтесь на раздаче! Для того, чтобы скачать сам торрент-файл (который видит больше источников), а также для того, чтобы поблагодарить релизера, вам необходимо зарегистрироваться. Если регистрироваться лень - вы можете также попробовать скачать релиз по нашим партнерским ссылкам ниже.

[underverse.su].t64295.torrent
Трекер: Зарегистрирован   [ 15.03.2016 21:03 ]  

Статус: проверено (by makkol at 15.03.2016 22:16)
Поблагодарили: 2 человека
Тип торрента: публичный - доступные источники с открытых трекеров: 
Размер: 569 MB (занимает 0,13 DVDR, для записи нужно 1 болванка DVDR/RW)
 
 
Похожие темы
Форум Тема Автор Торрент Отв. Посл. сооб.
Личности Прощание. Роман Трахтенберг [2016 г., документальный, биография, SatRip] ARI71
3 | 0

0 | 259

4

02.12.2016 11:09

Личности Прощание. Владимир Высоцкий [2015 г., документальный цикл, биография, SatRip] ARI71
1 | 0

0 | 727

14

10.04.2016 16:29

Личности Прощание. Людмила Гурченко [2015 г., документальный, биография, SatRip] ARI71
0 | 1

0 | 492

4

11.04.2016 16:08


Яндекс.Метрика powered by Sphinx


В Н И М А Н И Е
Сайт не распространяет и не хранит электронные версии произведений, а лишь бесплатно и без коммерческой выгоды (не требуя взамен платы,
SMS и т.д.) предоставляет доступ к создаваемому пользователями каталогу ссылок на торрент-файлы, которые содержат только списки хеш-сумм.
Убедительная просьба с жалобами обращаться напрямую к пользователю, разместившему торрент файл.

Вверх