Loading...
Error

Когда мы вернемся... (Фильм об Аркадии Северном и Арике Круппе) [2005 г., документальный, биография, шансон, TVRip]

Статистика раздачи
Размер:  226 MB   |    Зарегистрирован:  8 месяцев   |    Скачан:  2 раза

Полного источника не было: 5 месяцев 13 дней

Сидов:  0  |  0 KB/s  ]   Личеров:  0  |  0 KB/s  ]

* - сиды/пиры с внешних источников

   
 
Автор Сообщение

ARI71 Пол:Муж

15-Мар-2016 19:36

Когда мы вернемся... (Фильм об Аркадии Северном и Арике Круппе)


Год выпуска: 2005
Жанр: документальный, биография, шансон
Страна: Россия
Студия: Телеканал ТВЦ
Продолжительность: 00:25:54
Режиссер: Дмитрий Завильгельский
В ролях: Галим Долмагомбетов, Рудольф Фукс (Соловьёв), Надежда Крупп
Сюжет фильма:
Фильм рассказывает об истории создания памятника подпольному
певцу 70-х годов Аркадию Северному (Звездину) в Санкт-Петербурге.
Это логическое продолжение фильма "Он был почти что знаменит" о трагической судьбе певца, снятым спустя 17 лет после его гибели.

В фильме рассказывается также о трагически погибшем в 1971-м году в горах барде Арике (Аароне) Круппе, звучат его песни. Его песню "Сигарета" любил исполнять Аркадий Северный.

Качество видео: TVRip

Формат: VOB
Видео: MPEG-2 Video, 720х480, ~1004 kbps
Аудио: русский, оригинал, AC3 mono, ~192 kbps
Арка́дий Се́верный (настоящее имя — Арка́дий Дми́триевич Зве́здин; 12 марта 1939, Иваново — 12 апреля 1980, Ленинград) — исполнитель песен современного городского фольклора, авторских неподцензурных песен, романсов и стилизаций. Обладал очень оригинальным тембром голоса и экспрессивной артистической подачей песни. Мог ярко обыграть песню в любой стилистике, от романсовой до джазовой.

Аро́н Я́ковлевич Крупп (30 октября 1937, Даугавпилс — 25 марта 1971, Восточный Саян) — советский поэт, бард, классик «туристского» направления в авторской песне.

Код:

Общее
Полное имя : D:\Когда мы вернемся....VOB
Формат : MPEG-PS
Размер файла : 226 Мбайт
Продолжительность : 25 м.
Режим общего битрейта : Переменный
Общий поток : 1221 Кбит/сек

Видео
Идентификатор : 224 (0xE0)
Формат : MPEG Video
Версия формата : Version 2
Профиль формата : Main@Main
Параметр BVOP формата : Да
Параметр матрицы формата : По умолчанию
Параметр GOP формата : M=3, N=15
Продолжительность : 25 м.
Вид битрейта : Переменный
Битрейт : 1004 Кбит/сек
Максимальный битрейт : 9608 Кбит/сек
Ширина : 720 пикселей
Высота : 480 пикселей
Соотношение сторон : 4:3
Частота кадров : 29,970 кадров/сек
Стандарт вещания : NTSC
Цветовое пространство : YUV
Субдискретизация насыщенности : 4:2:0
Битовая глубина : 8 бит
Тип развёртки : Прогрессивная
Метод сжатия : С потерями
Бит/(Пиксели*Кадры) : 0.097
Временной код первого кадра : 00:00:00:00
Оригинал временного кода : Group of pictures header
GOP, открыто/закрыто : Открыто
Размер потока : 186 Мбайт (82%)

Аудио
Идентификатор : 189 (0xBD)-128 (0x80)
Формат : AC-3
Формат/Информация : Audio Coding 3
Расширение режима : CM (complete main)
Параметр Endianness формата : Big
Режим смешивания : DVD-Video
Продолжительность : 25 м.
Вид битрейта : Постоянный
Битрейт : 192 Кбит/сек
Каналы : 1 канал
Расположение каналов : Front: C
Частота : 48,0 КГц
Метод сжатия : С потерями
Размер потока : 35,6 Мбайт (16%)
picpicpicpicpic
Для увеличения картинки щелкните мышкой по превью

Этот торрент недоступен для скачивания без регистрации, однако доступен по публичной magnet-ссылке (источники с публичных трекеров). Перед использованием ссылки прочтите, пожалуйста Пользовательское соглашение, а также как можно дольше оставайтесь на раздаче! Для того, чтобы скачать сам торрент-файл (который видит больше источников), а также для того, чтобы поблагодарить релизера, вам необходимо зарегистрироваться. Если регистрироваться лень - вы можете также попробовать скачать релиз по нашим партнерским ссылкам ниже.

[underverse.su].t64293.torrent
Трекер: Зарегистрирован   [ 15.03.2016 19:36 ]  

Статус: проверено (by makkol at 15.03.2016 22:18)
Поблагодарили: пока никто не поблагодарил...
Тип торрента: публичный - доступные источники с открытых трекеров: 
Размер: 226 MB (занимает 0,05 DVDR, для записи нужно 1 болванка DVDR/RW)
 
 

Яндекс.Метрика powered by Sphinx


В Н И М А Н И Е
Сайт не распространяет и не хранит электронные версии произведений, а лишь бесплатно и без коммерческой выгоды (не требуя взамен платы,
SMS и т.д.) предоставляет доступ к создаваемому пользователями каталогу ссылок на торрент-файлы, которые содержат только списки хеш-сумм.
Убедительная просьба с жалобами обращаться напрямую к пользователю, разместившему торрент файл.

Вверх